This file was generated by Ched 2.7.0.0.
#TITLE ""
#ARTIST ""
#DESIGNER ""
#DIFFICULTY 0
#PLAYLEVEL
#SONGID ""
#WAVE ""
#WAVEOFFSET 0
#JACKET ""
#REQUEST "ticks_per_beat 480"
#00002: 4
#BPM01: 170
#00008: 01
#TIL00: ""
#VOLUME: ""
#HISPEED 00
#MEASUREHS 00
#0651f:11
#0651c:0012
#06516:0000000000140000
#06512:24
#00018:00001300000000001600001300001300
#00012:00160026
#00015:13000000000000000013000000000013
#0001b:00130000
#06418:00000000000000000014000000000000
#0641a:0000140000000014
#06416:0014000000000000
#06412:1400001400000000
#06419:00000000000000000000001400000000
#06414:0000000000140000
#06413:0014
#06417:00000000000000140000000000000000
#06415:00000024
#03117:000000000000000000000012
#03113:00000000000000000000000000000000000000000000001a
#03115:26
#07016:0000120012000012
#0701a:0012
#07018:00000012
#0701c:12
#07012:12
#06618:0000120012000012
#06614:0012
#0661c:12
#06616:00000012
#06814:0012
#0681c:0012
#06818:0000120000000012
#06816:00000012
#06812:12
#0681a:12
#06916:00120012
#06912:0012
#0691a:12
#06914:12
#06918:0022
#07117:00000012
#0711a:00120000
#07118:12
#0711c:0022
#06717:00000012
#06714:00120000
#06716:12
#06712:0022
#06318:0000130000130026
#06312:26231300
#0631b:23002313
#06315:0000001300002300
#06118:00230013
#06112:2600131300002313
#0611b:2300000013130000
#06115:0023
#06110:41
#06218:2600000013130000
#06215:0000131300001313
#06212:2323
#0621b:00230023
#07615:0013000000001300
#07612:00000000130000000013000000000000
#07618:13000000000000000000001300000000
#0761b:0000130013000013
#0421b:1300130000000013
#04212:00130000000013000000000000000000
#04217:0013
#04216:00000013
#04116:00000000000000000000001300001300
#0411b:00130000000000000000000013000000
#04112:2300131313000000
#04117:0000001300000000
#04017:00000000000000000000001300001300
#04012:00000013
#0401b:0000001313000000
#04016:0000001300000000
#03717:0000000000000013
#03718:0000131300000000
#03712:0000001300001300
#0371b:13000000000000001300001300000000
#09318:0013001326000013
#0931b:00130013
#09315:0000130000130000
#09312:26000000000000130000000000000000
#08915:00001300000013000013000000001300
#08912:00130013
#08918:1300130000130000
#0891b:00000000000000130000000000000000
#09218:26000000130000000013000000001300
#0921b:00000000000013000000001300000000
#09215:0013000000130000
#09212:00130000
#08815:13000000130000000013000000001300
#08812:00000000000013000000001300000000
#08818:0013000000130000
#0881b:00130000
#0941b:00000000130000000013000000130000
#09415:0000130000131300
#09418:13000000000013000000001300000000
#09412:0013000000000000
#09012:00000000130000000013000000130000
#09018:0000130000131300
#09015:13000000000013000000001300000000
#0901b:0013000000000000
#09115:0000130000130000
#0911b:00000000130000000013000000001300
#09118:0013001300001300
#09112:26000000000000130000000000000000
#00515:00000000000013000013000013000000
#00512:1300130000000013
#00518:00001300000000130000130000000000
#0051b:00130000
#00818:00001300000013000000001300000000
#00812:00130013
#0081b:00000000130000000013000000130000
#00815:1300000000130000
#00718:00001300000000130000000000001300
#0071b:0000130000131300
#00715:13000000000000000013000000000000
#00712:0000131300000000
#0061b:00000000130000000013000000001300
#00618:13000000000013000000001300000000
#00615:0013000000130000
#00612:00130000
#00118:26000000000013000013000013000000
#0011b:0000130000000013
#00115:00001300000000130000130000000000
#00112:00130000
#00415:00001300000013000000001300000000
#0041b:00130013
#00412:00000000130000000013000000130000
#00418:1300000000130000
#08718:2600130000130000
#08712:00000000130000000013000000001300
#08715:0013001300001300
#0871b:00000000000000130000000000000000
#0841b:00130000
#08412:0013001300240000
#0841a:0000000000140000
#08413:00000014
#08416:0024242400000000
#08414:0000000000000028
#08419:00000024
#08318:0013001300000000
#0831b:0000130000130013
#08312:00000013
#08316:0000000000242424
#08214:00130000
#08217:0013000000000000
#08216:0000001300000000
#08215:0000000000130013
#08212:00000013
#0821b:0000001300000000
#08219:00130000
#08116:0013000000001313
#0811b:0000000000000013
#08112:0000001313000000
#08117:0000001313000000
#08017:0000000000001313
#08012:0000000000000013
#0801b:0000001313000000
#08016:0000001313000000
#07912:1300001300000013
#0791b:1300001300000013
#07918:00131313
#07915:0013000000130000
#07815:00000013
#0781b:1313
#07816:00130000000000001300000000000000
#07818:00000000000000000000001300001300
#07814:0000001300000000
#07817:00130000
#07819:0000001300000000
#07810:41
#07717:00130000000000001300000000000000
#07712:2300000013000013
#07719:0000001300000000
#07716:00130000
#07718:00000013
#07715:00000000000000000000001300000000
#07714:0000001300000000
#0771f:21
#04412:0014001313000013
#0441a:14
#04417:0000001313000000
#04416:00000013
#04315:0000001300000013
#04318:13000013
#04312:1300000000130000
#0431b:0000131300000000
#0271b:1300131323000000
#02712:1300000000333313
#02716:00331300
#02718:00000013
#06018:1300130013000013
#06015:0013000000130000
#0601b:0000001300000000
#06012:23232323
#04714:00000014
#04718:0000140000140000
#0471a:0014000000000024
#04712:0000000000000024
#04716:0000002400000000
#03415:0013
#0341b:0000001300000013
#03412:13130013
#03418:00000000000000000000001300000000
#0301b:13000013
#03016:13000013
#03012:00131300
#03017:00130000
#08515:00160000
#0241b:1313
#02418:00130013
#02412:0013000000001300
#02415:0013
#02312:1313
#02315:0013001300001300
#02318:0000130000000013
#0231b:1300000000130000
#02012:1300000000130000
#02018:00000013
#0201b:0013001300000000
#02015:0000130000000013
#0191b:1313
#01918:0013001300001300
#01915:0000130000000013
#01912:1300000000130000
#04618:13130000
#04612:0000001300140000
#0461b:0000001300000000
#04615:0013000000000000
#04614:00000014
#04616:0000000000000024
#0451b:0000001313000013
#04515:13
#04518:0013000000000000
#04516:0000001313000000
#04517:00000013
#0391b:1300000000130000
#03918:0000001300000013
#03912:1300000000130000
#03915:0000001300000013
#0381b:0000001300000000
#03812:1300001300000000
#03818:0000000000130013
#03815:00130013
#03615:0000001300000000
#0361b:0000001300001300
#03612:14000000000000001300001300000000
#03616:0000000000000013
#0361a:0014000000000000
#03518:1300000000130013
#03515:0000131300001300
#0351b:0000001300000000
#03512:13
#0331b:2300131300000013
#03315:00000013
#03312:0000001300000000
#03318:00000000000000001300001300000000
#03310:41
#03212:0000001300000013
#03218:00000013
#0321b:0000001300000000
#03215:00000000000000001300001300000000
#02916:00131300
#02917:13000013
#0291b:0013
#02912:13
#0211b:13
#02118:0000130000130013
#02112:0013
#02115:13000013
#02110:41
#02215:0000001300001300
#02212:0013000000000000
#0221b:0000130000130000
#02218:0000000000000013
#01818:0000001300001300
#0181b:0013000000000000
#01812:0000130000130000
#01815:0000000000000013
#01715:0000130000130013
#0171b:0013
#01718:13000013
#01712:23
#01618:0000000000000013
#01518:1300000000001313
#0151b:0000001300000000
#01418:0000000000000013
#01417:0000001300000000
#01419:00130000
#01318:0000000000000013
#0131b:00131300
#01319:00000013
#0131a:0000000000130000
#01115:1300000000001313
#01112:0000001300000000
#01015:0000000000000013
#01016:0000001300000000
#01014:00130000
#01215:0000000000000013
#01216:0000001300000000
#01214:00130000
#00915:2300000000000013
#00912:00131300
#00914:00000013
#00913:0000000000130000
#00910:41
#00315:00001300000000130000000000001300
#00312:0000130000131300
#00318:13000000000000000013000000000000
#0031b:0000131300000000
#0561a:0014
#05616:0014
#05612:16
#05512:0014
#05516:0014
#05518:16
#05416:0014
#05412:1614
#05316:0014
#0531a:0014
#05318:16
#05818:0013000000130000
#05815:1300130013000013
#05812:0000001300000000
#0581b:23232323
#05212:16
#05118:16
#05012:16
#04918:16
#04912:26
#04910:41
#0591b:1300001300000013
#05918:00131313
#05915:0013000000130000
#05912:23232323
#05712:2300001300000013
#05715:00131313
#05718:0013000000130000
#0571b:23232323
#02815:0000000000000013
#02818:00000013
#0281a:00130000
#02819:13
#0281b:0023
#02618:0000000000000013
#02615:00000013
#02613:00130000
#02614:13
#02612:0023
#02512:2300001323000000
#0251b:1300000000333313
#02515:00000013
#02517:00331300
#00212:00000000130000000013000000001300
#00215:13000000000013000000001300000000
#00218:0013000000130000
#0021b:00130000
#07152:0012
#0675c:0012
#08352:0000001300000000
#08356:0000000000000014
#08358:0000001300000000
#0835b:0000000000000013
#0825b:0000000000000013
#08255:0000000000000013
#08058:0013000000000000
#08055:0013000000000000
#08057:0000000000000053
#08052:0000000000000013
#08056:0063
#08652:0000001c
#02856:0013
#0405b:0013000000000000
#04052:0013000000000000
#04057:0000000000000053
#04752:0000001400000054
#0475a:0000000000000064
#04756:0000001400000000
#0465a:0000000000000014
#04656:0000000000000014
#04658:23
#03257:12
#03252:0000000000000053
#02152:00130000
#02158:0000530000000053
#02155:63000013
#07354:18
#04552:0000000000000013
#0455b:0000000000000063
#04555:23
#04556:0063
#0445b:0000000000000013
#04452:0014000000000053
#0445a:14
#04457:0053
#02657:0013
#0175b:00130000
#01752:13
#01755:0000630000000063
#01758:53000013
#05752:13
#06552:54
#0655c:0012
#06556:0000000000240000
#06358:0000000000000016
#06352:16
#06258:16
#06152:16
#08456:0000001400000000
#08454:0000000000000058
#08452:0000001300000000
#09358:0016
#09352:16
#09152:16
#00955:1300000000000053
#08758:16
#04152:13
#04156:0000000000000063
#0415b:00230000000000000000000000000000
#09258:16
#0335b:1300000000000063
#02552:13
#0255b:5300000000000053
#02557:0053
#00158:16
#00052:00000016
#04952:16
#04958:56
#07752:1300000000000053
#07757:00230000000000005300000000000000
#03157:000000000000000000000022
#03153:00000000000000000000000000000000000000000000005a
#07056:0012
#0685c:0012
#06658:0012
#06952:0012
#0425b:13
#04252:00230000000000000000000000000000
#04257:0063
#03757:0000000000000053
#0375b:13
#08156:0000000000000063
#0815b:0000000000000013
#08157:0053
#07952:5300000000000053
#0795b:0000006300000063
#07958:0023
#07955:0023000000000000
#0785b:13
#07856:00230000000000006300000000000000
#03455:0063
#03452:13
#08555:00260000
#02752:6300000000000063
#02756:0063
#0245b:2313
#02458:00130013
#02452:0013000000001300
#02455:0013
#02352:0023
#02355:0000006300001300
#02358:0000130000000053
#02052:23
#02058:00000013
#0205b:0000006300000000
#02055:00130000
#0195b:0023
#01958:0000005300001300
#01955:0000130000000063
#0395b:6300000000630000
#03958:0000005300000053
#03952:5300000000530000
#03955:0000006300000063
#03852:1300005300000000
#03656:0000000000000063
#0365a:0014000000000000
#03652:14
#03555:0000006300000000
#03558:53
#02956:0063
#02957:53
#03056:00000023
#03052:0053
#03057:00230000
#0305b:63
#02255:0000006300001300
#0225b:00130000
#01858:0000005300001300
#01852:00130000
#01558:6300000000000053
#0155b:0000005300000000
#01358:0000000000000063
#01155:5300000000000063
#01152:0000006300000000
#05452:6624
#0535a:0024
#05358:56
#05656:0024
#05652:66
#05556:0024
#05558:56
#05252:56
#05158:66
#05052:66
#0765b:0000000000000063
#0435b:0000006300000000
#04352:53
#001320:0000000000001323
#002380:00000000000000130023000000000000
#0023b0:0000000000001323
#0033b0:0000000000001323
#004380:00000000000000130023000000000000
#004380:0000000000000013
#005380:23
#0053b0:0000000000001323
#006350:00000000000000130023000000000000
#006320:0000000000001323
#007320:0000000000001323
#008350:00000000000000130023000000000000
#008350:0000000000000013
#009350:23
#0093b1:13333333
#0093a1:0033003300330033
#0103b1:33333333
#0103a1:0033003300330033
#0113b1:33333333
#0113a1:0033003300330033
#0123b1:33333333
#0123a1:0033003300330033
#0133b1:23
#009350:0000000000000013
#010320:0023000000000000
#011350:13
#011320:00230000
#011320:0000001300000000
#011350:0000000000230000
#011350:0000000000000013
#012320:0023000000000000
#013320:13333333
#013330:0033003300330033
#014320:33333333
#014330:0033003300330033
#015320:33333333
#015330:0033003300330033
#016320:33333333
#016330:0033003300330033
#017320:23
#013381:0000000000000013
#0143b1:0023000000000000
#015381:13
#0153b1:00230000
#0153b1:0000001300000000
#015381:0000000000230000
#015381:0000000000000013
#0163b1:00230000
#017381:13
#0173b1:00230000
#017350:00130000
#017320:0023
#017350:0000000000000013
#018320:0023000000000000
#018380:0000001300000000
#0183b0:0000000000230000
#019380:0000001300230000
#0193b0:0053
#019350:0000000000000013
#020320:53
#020350:0023000000000000
#0203b0:0000001300000000
#020380:0000000000230000
#021350:13
#021320:00230000
#021381:00130000
#0213b1:0023
#021381:0000000000000013
#0223b1:0023000000000000
#022351:0000001300000000
#022321:0000000000230000
#023351:0000001300230000
#023321:0053
#023381:0000000000000013
#0243b1:53
#024381:0023000000000000
#0253b1:1300000000333333
#025371:00333300
#026371:0023
#027321:1300000000333333
#027361:00333300
#028361:0023
#029371:13
#0293b1:00230000
#029361:0013
#029321:00000023
#0303b1:1323
#030371:00330000
#030320:0013
#030360:00000033
#031320:23
#031351:16
#031371:000000000000000000000052
#031331:00000000000000000000000000000000000000000000005a
#032371:22
#032381:00000000000000001300002300000000
#032321:0000000000000013
#033361:00230000
#033351:00000000000000001300002300000000
#0333b1:0000000000000013
#034371:00230000
#034351:0013
#034321:00000000000000000000002300000000
#035381:13
#0353b1:00230000
#035351:0000001300000000
#035321:0000000000230000
#036381:00000000000000001300002300000000
#036361:0000000000000013
#037321:00230000
#037351:00000000000000001300002300000000
#037371:0000000000000013
#0383b1:00230000
#038321:0000001300000000
#038351:0000000000230000
#0393b1:1300000000330000
#039381:0000333300000033
#0403b1:5323000000000000
#039320:1300000000330000
#039350:0000333300000033
#040320:5323000000000000
#040320:00000000000000001300002300000000
#040370:0000000000000013
#0413b0:00530000000000000000000000000000
#041370:00230000
#0413b0:00000000000000001300002300000000
#041360:0000000000000013
#042320:00530000000000000000000000000000
#042360:00230000
#042370:0013
#0423b0:00000023
#043320:13
#043350:00230000
#0433b0:0000001300000000
#043380:0000000000230000
#044370:0013
#0443b0:0000000000003323
#044321:0000000000000013
#045351:53
#045321:0023000000000000
#045361:0013
#045321:0000000000003323
#0453b0:0000000000000013
#046380:53
#0463b0:0023000000000000
#046360:0000000000140000
#046380:00000034
#0463a0:0000000000000024
#047360:0014000000000000
#047340:00340000
#047320:0000002400000000
#047320:0000000000000014
#048360:00000022
#0473a1:0000000000000014
#048381:00000022
#049381:16
#0503b1:23
#050320:16
#051320:23
#051381:16
#052381:23
#052320:16
#053350:23
#053381:16
#0533a1:0054
#054381:23
#054320:1654
#055350:23
#055381:16
#055361:0054
#0563b1:23
#056320:16
#056360:0054
#057320:23
#065320:14
#065360:0000000000540000
#066320:00240000
#0673c0:1222
#071320:1222
#072370:12
#073340:28
#0763b0:0000000000000013
#077370:00530000000000000000000000000000
#0773b0:00230000
#077370:0013
#0773b0:00000000000000000000002300000000
#077320:0000000000000013
#078360:00530000000000000000000000000000
#078320:00230000
#078360:0013
#078320:00000000000000000000002300000000
#079320:13230000
#079350:0053000000000000
#0793b0:0000001300230000
#079380:0053
#0793b0:0000000000000013
#080380:0023000000000000
#079321:0000000000000013
#080351:0023000000000000
#080361:0013
#080321:00000023
#080371:0000000000000013
#0813b1:0023000000000000
#081371:0013
#0813b1:00000023
#081361:0000000000000013
#082321:0023000000000000
#0823b1:0000000000130023
#082381:00000033
#083321:0013002300000000
#083351:00330000
#084341:0000000000000018
#085351:00560000
#086321:0000002c
#0873b1:00000013
#087381:0000000000000023
#088381:00000000000000130023000000000000
#0883b1:0000000000001323
#0893b1:00000013
#089381:0000000000000023
#0903b1:00000000000000130023000000000000
#0903b1:0000000000000013
#0913b1:23
#091321:00000013
#091351:0000000000000023
#092351:00000000000000130023000000000000
#092321:0000000000001323
#093321:00000013
#093351:0000000000000023
#094321:00000000000000130023000000000000
#094321:0000000000000013
#095321:23
#095350:19
#0973c0:22
