This file was generated by Ched 2.7.0.0.
#TITLE ""
#ARTIST ""
#DESIGNER ""
#DIFFICULTY 0
#PLAYLEVEL
#SONGID ""
#WAVE ""
#WAVEOFFSET 0
#JACKET ""
#REQUEST "ticks_per_beat 480"
#00002: 4
#BPM01: 170
#00008: 01
#TIL00: ""
#VOLUME: ""
#HISPEED 00
#MEASUREHS 00
#0031b:1300000000000013
#00315:0013000000001300
#01915:0013000000001300
#01918:1300001300000000
#01912:0000130000000013
#0181b:0000000000000013
#01818:00130000
#01815:0000001300000000
#03212:0000001313000013
#0321b:0000001313000000
#03218:00000000000000000000001300002300
#03215:00000013
#04412:0000001300000013
#04418:0014000000000000
#04414:14
#0441b:0013
#04612:0000000000140000
#0461a:00000014
#04615:00130000
#04618:0000001300000000
#04616:0000000000000024
#07915:00000013
#07912:1300000000000013
#0791b:0000001300000013
#0801b:0000001300000000
#08015:0013
#08018:0000000000000013
#07618:13130013
#07615:00001300000000000000001300002300
#0761b:0000001313000023
#07612:0000001313000000
#08712:0013000000001300
#08718:26000000130000130000000000001300
#08715:0000001300000000
#08915:00130000
#08918:0013001300000000
#0891b:13000013
#08912:00000000000000130000000000001300
#0881b:0013000000000000
#08812:00000000130000000033333333000000
#08818:0000001300000000
#08815:13000000000000130000000000000000
#0901b:1300000000000000000000000000000000003300331333003300000000000000
#09012:0000001300000000
#09018:00000000130000130000000000000000
#09015:0013000000000000
#0901a:00000000000000000000000000330000
#01115:13000013
#01118:0000001300000000
#0111b:0000000000000013
#01018:0000130000000013
#01015:0000001300000000
#00918:0000000000130000
#00915:00130013
#0091b:00131300
#00912:2300000000000013
#00910:41
#04918:16
#0491b:0013
#04910:41
#07712:00130000000013001300000000002300
#07718:00130000000000000000001300002300
#0771b:0000001313000000
#07715:00000013
#0771f:21
#00115:0013000000000000
#00118:2600000000000013
#00112:00000013
#00015:13
#00018:0013000016000000
#00012:00160026
#01215:0000130000000013
#01218:0000001300000000
#01618:0000000000000013
#02018:00130000
#0201b:0000001300000000
#02015:0000000000000013
#03315:00000000000000001300001300001300
#03318:0000001300001300
#0331b:0000000000000023
#03310:41
#03415:0000001300000013
#03418:0013
#03515:0000001300000013
#0351b:13
#03518:00000013
#03614:0014000000000000
#03618:14000013
#0361b:0000001313000013
#03612:0000001313000000
#03615:00000000000000000000001300002300
#08512:00130000
#0851b:00130000
#0401b:0000001300000023
#04015:0000001300000013
#04018:00000000000000001300001300000000
#04012:00001313
#04118:0000001300000023
#04115:00000000000000001300001300000000
#0411b:00000013
#04112:0000000000000013
#07815:00130000000013000000000000001300
#0781b:00130000000000000000000000000000
#07818:0013
#07810:41
#0051b:13000013
#00518:0013000000000000
#00515:0000000000000013
#03718:00000000000000001300001300001300
#03715:0000001300001300
#03712:0000000000000023
#03815:0000001300000013
#03818:00000013
#0391b:13
#03912:13
#03915:0000333300000013
#03918:0000333300000013
#04218:0000001300000013
#04215:0013
#04318:0000001300000013
#04312:13
#04315:00000013
#0451b:0000001300000013
#04512:0013
#0471a:0014000000000000
#04712:00140000
#04714:0000000000140024
#04718:00000014
#04716:0000002400000000
#05018:1613
#05112:1613
#05212:16
#05215:0013
#05318:16
#05412:16
#05518:16
#05612:16
#05918:1300001300000013
#05915:0013
#05912:00130013
#05815:0000001300000013
#0581b:00130013
#05818:1313
#06114:2400001400000000
#0611a:00140000
#06118:0000000014000014
#06112:00000014
#06110:41
#0621a:0000140000000014
#06212:0000001400001400
#06216:0014
#06214:24
#0571b:00130013
#05715:0000001300000013
#05718:0013
#05712:23
#06015:1313
#06018:0000001300000013
#06012:00130013
#06316:24140014
#06312:0000001400000000
#0631a:0000000014000024
#06412:1400001400000014
#06414:0000000000140000
#0641a:00140024
#06418:0014
#06516:0000000000140000
#0651f:11
#0651a:24
#06618:00000012
#06612:0012
#06714:12
#0671a:00120000
#0671c:00000012
#06716:0022
#06814:12
#0681a:00120000
#06818:00000012
#06816:0000000000000012
#06812:0012
#06918:12
#06912:00120000
#06914:00000012
#0691c:0022
#07016:00120012
#0701c:0012
#0701a:12
#0711a:12
#07114:00120000
#07112:00000012
#07118:0022
#01518:13000013
#01515:0000001300000000
#01512:0000000000000013
#01415:0000130000000013
#01418:0000001300000000
#01315:0000000000130000
#01318:00130013
#01312:00131300
#0131b:1300000000000013
#01715:1300000000130000
#0171b:0013
#01712:0000000000000013
#01718:00000013
#02212:0000000000000013
#02215:00130000
#02218:0000001300000000
#02318:13000013
#02315:0000001300000000
#02312:0000000000000013
#0241b:00130013
#02415:00130013
#02412:0013
#02418:0000000013000013
#02118:1300000000130000
#02112:0013
#0211b:0000000000000013
#02115:00000013
#02110:41
#02516:0000000033133333
#02512:13
#02514:00330000
#02615:0000000000000013
#02612:0023
#02618:0023
#02717:0000000033133333
#0271b:13
#02719:00330000
#02818:0000000000000013
#0281b:0023
#02815:0023
#02915:13
#02918:0013
#03012:13
#0301b:0013
#08215:0000001300000000
#08218:00130000
#0821a:0000000000140000
#08216:00000014
#08212:0000000000000014
#08112:0000001300000000
#08118:0013
#08115:0000000000000013
#08312:0014000000000013
#08316:0000140000130024
#0831a:0000001400240000
#08314:00000013
#08318:00000024
#08417:0013000000000000
#0841b:0000001300000000
#08419:00130000
#08412:0024000000142424
#0841a:0000000000241424
#08414:00240000
#08416:0000002400000000
#0911b:0013000000001300
#09115:00000000130000130000000000001300
#09118:0000001300000000
#09112:26
#09212:0013000000000000
#0921b:00000000130000000033333333000000
#09215:0000001300000000
#09218:26000000000000130000000000000000
#09312:2600130000130000
#09318:0013001326001300
#09315:00000000000000130000000000001300
#09412:1300000000000000000000000000000000003300331333003300000000000000
#0941b:0000001300000000
#09415:00000000130000130000000000000000
#09418:0013000000000000
#09413:00000000000000000000000000330000
#00215:13000000000000000033333333000000
#0021b:0013000000000000
#00212:00000000000000130000000000000000
#00415:00000000000000130000000000000000
#00412:13000000000000000033333333330000
#00418:0013000000000000
#00712:1300000000000013
#00718:0013000000001300
#00618:13000000000000000033333333000000
#00612:0013000000000000
#0061b:00000000000000130000000000000000
#00818:00000000000000130000000000000000
#0081b:13000000000000000033333333330000
#00815:0013000000000000
#03114:28
#01155:53
#01158:0000006300000000
#0115b:0000000000000063
#04958:56
#0495b:0023
#07752:00230000000000000000000000005300
#07758:00230000000000000000000000005300
#00052:00000016
#00158:16
#0205b:0000006300000000
#03555:0000006300000000
#0355b:63
#03654:0014000000000000
#03658:14
#0365b:0000000000000063
#03655:0000000000000063
#04656:0000000000000014
#04052:0013000000000000
#0405b:0013000000000063
#04055:0000000000000063
#08652:00000016
#08658:00000016
#08452:0000000000000054
#0845b:0000001300000000
#08456:0000001400000000
#0845a:0000000000000064
#08552:00230000
#0855b:00230000
#09258:16000000000000530000000000000000
#07952:5300000000000053
#0795b:0000006300000063
#08055:0013000063000000
#08058:0013000000000053
#08758:16000000000000530000000000000000
#09352:16
#09358:0016
#03256:14
#03252:0000000000000053
#03258:0000000000000053
#03355:0000000000000063
#0335b:0000000000000063
#03458:0053
#03855:0000006300000000
#0395b:63
#03952:53
#03955:0000000000000063
#03958:0000000000000053
#04152:0000000000000053
#04158:0000000000000053
#04358:0000005300000000
#04352:53
#04458:0014000000000000
#04454:14
#0445b:0063
#04452:0000000000000053
#04255:0063
#04552:0053
#0455b:0000000000000063
#04756:0000001400000000
#04754:0000000000000064
#05058:6623
#05152:6623
#05252:56
#05255:0023
#05358:66
#05452:56
#05558:56
#05652:66
#05752:13
#06556:0000000000240000
#0655a:64
#07354:18
#00952:0000000000000063
#01558:63
#01555:0000005300000000
#01552:0000000000000053
#0135b:0000000000000053
#01755:63
#01752:0000000000000053
#01855:0000006300000000
#01952:0000000000000053
#01958:0000005300000000
#02158:53
#0215b:0000000000000063
#02258:0000005300000000
#02355:0000006300000000
#02358:53
#02352:0000000000000053
#02556:0000000000230000
#02552:53
#02757:0000000000230000
#0275b:63
#02955:63
#02958:0053
#03052:53
#0305b:0063
#0785b:00230000000000000000000000000000
#07855:00230000000000000000000000000000
#07858:0053
#08158:0053
#08155:0000000000000063
#08252:0000000000000014
#0835a:0000001400000000
#08352:0000000000000013
#08356:0000000000000014
#08855:00000000000000630000000000000000
#0905b:0000000000000000000000000000000000000000002300000000000000000000
#09058:00000000000000530000000000000000
#09152:16
#09155:00000000000000630000000000000000
#09455:00000000000000630000000000000000
#09452:0000000000000000000000000000000000000000002300000000000000000000
#07655:0000000000000063
#0765b:0000000000000063
#03758:0000000000000053
#03752:0000000000000053
#08952:00000000000000530000000000000000
#00455:00000000000000630000000000000000
#00252:00000000000000530000000000000000
#00858:00000000000000530000000000000000
#0065b:00000000000000630000000000000000
#001380:0000130000230000
#0013b0:00000000000000330000000000000000
#002350:00000000130000000033333333002300
#002320:00000000000000330000000000000000
#0033b0:0000130000230000
#003380:00000000000000330000000000000000
#004320:00000000130000000033333333332300
#004350:00000000000000330000000000000000
#005350:0000130000230000
#005320:00000000000000330000000000000000
#006380:00000000130000000033333333002300
#0063b0:00000000000000330000000000000000
#007320:0000130000230000
#007350:00000000000000330000000000000000
#0083b0:00000000130000000033333333332300
#008380:00000000000000330000000000000000
#009320:0000000000000013
#010350:0023000000000000
#011350:13
#011320:00230000
#011380:0000001300000000
#0113b0:0000000000230000
#0113b0:0000000000000013
#012380:0023000000000000
#0133b0:0000000000000013
#014380:0023000000000000
#015380:13
#0153b0:00230000
#015350:0000001300000000
#015320:0000000000230000
#015320:0000000000000013
#016350:0023
#017350:13
#017320:00230000
#017320:0000000000000013
#018350:0023000000000000
#018350:0000001300000000
#018320:0000000000230000
#019380:0000001300000000
#0193b0:0000000000230000
#019320:0000000000000013
#020350:0023000000000000
#0203b0:0000001300000000
#020380:0000000000230000
#021380:13
#0213b0:00230000
#0213b0:0000000000000013
#022380:0023000000000000
#022380:0000001300000000
#0223b0:0000000000230000
#023380:13
#0233b0:00230000
#023350:0000001300000000
#023320:0000000000230000
#023320:0000000000000013
#024350:0023000000000000
#025320:13
#025340:00330000
#025360:0000000033333333
#026320:00230000
#0273b0:13
#027390:00330000
#027370:0000000033333333
#0283b0:00230000
#029350:13
#029320:00230000
#029380:0013
#0293b0:00000023
#030320:13
#030350:00230000
#0303b0:0013
#030380:00000023
#031340:18
#032360:24
#032380:0000000000000013
#0333b0:00230000
#032321:0000000000000013
#033351:00230000
#033351:0000000000000013
#034321:00230000
#0333b0:0000000000000013
#034380:00230000
#034380:0013
#0343b0:00000023
#0353b0:13
#035380:00230000
#035350:0000001300000000
#035320:0000000000230000
#036350:0000000000000013
#037320:00230000
#0363b1:0000000000000013
#037381:00230000
#037381:0000000000000013
#0383b1:00230000
#037320:0000000000000013
#038350:00230000
#038350:0000001300000000
#038320:0000000000230000
#039320:13
#039350:0000333300330033
#040320:0023000000000000
#0393b1:13
#039381:0000333300330033
#0403b1:0023000000000000
#040351:0000000000000013
#041321:00230000
#0403b0:0000000000000013
#041380:00230000
#041380:0000000000000013
#0423b0:00230000
#041321:0000000000000013
#042351:00230000
#042351:0013
#042321:00000023
#043321:13
#043351:00230000
#043381:0000001300000000
#0433b1:0000000000230000
#0443b1:0013
#044381:00000023
#044321:0000000000000013
#045351:0023000000000000
#045321:0013
#045351:00000023
#0453b1:0000000000000013
#046381:0023000000000000
#047341:0000000000000014
#048321:00000022
#049381:16
#0493b1:0053
#050381:3653
#051381:26
#051320:1653
#052320:36
#052350:0053
#053320:26
#053381:16
#054381:23
#054320:16
#055350:23
#055381:16
#0563b1:23
#056320:16
#057320:23
#0653a0:14
#065360:0000000000540000
#0663a0:00240000
#072360:14
#073340:28
#076350:0000000000000013
#077320:00530000000000000000000000000000
#077350:00230000
#0763b1:0000000000000013
#077381:00530000000000000000000000000000
#0773b1:00230000
#077381:0000000000000013
#0783b1:00530000000000000000000000000000
#078381:00230000
#077320:0000000000000013
#078350:00530000000000000000000000000000
#078320:00230000
#078380:0013
#0783b0:00000023
#079320:13
#079350:00230000
#0793b0:0000001300000000
#079380:0000000000230000
#079320:0000000000000013
#080350:0023000000000000
#0793b1:0000000000000013
#080381:0023000000000000
#080351:0013
#080321:00000023
#080381:0000000000000013
#0813b1:0023000000000000
#081381:0013
#0813b1:00000023
#081351:0000000000000013
#082321:0023000000000000
#084321:0000000000000014
#085321:00530000
#086321:00000026
#0843a0:0000000000000014
#0853b0:00530000
#086380:00000026
#087380:00000000000000130000000000000000
#0873b0:0000000000230000
#088350:00000000000000130000000000000000
#088320:00000000000000000033333333002300
#089320:00000000000000130000000000000000
#089350:0000000000230000
#090380:00000000000000130000000000002300
#0903b0:0000000000000000000000000000000000003300335333003300000000000000
#0903a0:00000000000000000000000000330000
#091350:00000000000000130000000000000000
#091320:0000000000230000
#092380:00000000000000130000000000000000
#0923b0:00000000000000000033333333002300
#094350:00000000000000130000000000002300
#094320:0000000000000000000000000000000000003300335333003300000000000000
#094330:00000000000000000000000000330000
#095380:16
#0973c0:22
