This file was generated by Ched 2.7.0.0.
#TITLE ""
#ARTIST ""
#DESIGNER ""
#DIFFICULTY 0
#PLAYLEVEL
#SONGID ""
#WAVE ""
#WAVEOFFSET 0
#JACKET ""
#REQUEST "ticks_per_beat 480"
#00002: 4
#BPM01: 170
#00008: 01
#TIL00: ""
#VOLUME: ""
#HISPEED 00
#MEASUREHS 00
#00018:1414
#00014:00140014
#00112:00140014
#0011a:2414
#00218:1414
#00214:00140014
#00312:00140014
#0031a:1414
#00418:1414
#00414:00140014
#0051a:14
#00514:00140000
#00518:0014
#00512:00000014
#00618:14
#00612:00140000
#0061a:0014
#00614:00000014
#0071a:14
#00714:00140000
#00718:0014
#00712:00000014
#00818:14
#00812:00140000
#0081a:0014
#00814:00000014
#00918:00000014
#0091a:14343400
#00910:41
#01114:00000014
#01112:14343400
#01512:00000014
#01514:14343400
#0131a:00000014
#01318:14343400
#0171a:1414
#01714:00140014
#01818:1414
#01812:00140000
#01912:1414
#01918:00140014
#02014:1414
#0201a:00140000
#0211a:14
#02114:00140000
#02118:0014
#02112:00000014
#02110:41
#02218:14
#02214:00140000
#0221a:0014
#02312:14
#02318:00140000
#02314:0014
#0231a:00000014
#02414:14
#02418:00140000
#02412:0014
#0251a:14
#02518:0014
#0261a:14
#02712:14
#02714:0014
#02812:14
#0291a:14
#03012:14
#03212:0016
#03218:00000016
#03318:0016
#03312:26000016
#03310:41
#03418:16000014
#03412:0014
#03514:1414
#0351a:00140000
#03518:00000014
#03612:14000016
#03618:0016
#03712:0016
#03718:16000016
#03812:16
#0381a:0014
#03814:00000014
#07618:00140016
#07614:14
#07612:0016
#03918:1414
#03912:00140000
#03914:00000014
#0401a:14
#04012:0016
#04018:00000016
#04118:0016
#04112:26000016
#04218:16000014
#04212:0014
#04314:1414
#0431a:00140000
#04318:00000014
#04412:14000016
#04418:0016
#04518:16000016
#04512:0016
#04612:16001616
#04618:00160000
#04718:16160016
#04712:0016
#0491a:14
#04910:41
#05112:14
#05318:14
#05514:14
#06412:00003414
#06413:00340000
#06515:0000001400000000
#0651f:11
#06718:14
#06712:0014
#06818:14
#07118:14
#07114:0014
#06914:14
#0691a:0014
#07014:14
#07718:0016
#07712:26000016
#0771f:21
#07818:16000014
#07812:0014
#07810:41
#07914:1414
#0791a:00140000
#07918:00000014
#08012:14000016
#08018:0016
#08118:16000016
#08112:0016
#08212:16001616
#08218:00160000
#08318:16160016
#08312:0016
#08418:0000160000002616
#08412:1616
#08519:00140000
#0871a:00140014
#08712:2414
#08814:1414
#08818:00140014
#0891a:00140014
#08912:1414
#09014:1414
#09018:00140014
#09112:14
#09118:00140000
#09114:0014
#0911a:00000014
#09214:14
#0921a:00140000
#09212:0014
#09218:00000014
#09312:14
#09318:00140000
#09314:0014
#0931a:00000014
#09414:14
#0941a:00140000
#09412:0014
#09418:00000014
#03118:26
#0101a:34340000
#01212:34340000
#01614:34340000
#01418:34340000
#05719:00340000
#05718:0034
#05819:00340000
#0581a:0034
#05913:00340000
#05914:0034
#06013:00340000
#06012:0034
#06119:00340000
#06118:0034
#06110:41
#06213:00340000
#06214:0034
#06319:00340000
#0631a:0034
#0325a:14
#00958:00000024
#0095a:64
#01154:00000024
#01152:54
#01552:00000024
#01554:64
#0135a:00000024
#01358:54
#0255a:64
#02558:0054
#0265a:64
#02658:0014
#02752:54
#02754:0064
#02852:54
#02854:0014
#0295a:64
#03052:54
#03352:16
#03758:16
#03458:16
#03852:16
#04258:16
#04152:16
#0495a:64
#05152:54
#05358:54
#05554:64
#06452:00000054
#06555:0000002400000000
#07356:18
#07858:16
#07752:16
#08458:0000000000000066
#08559:00240000
#08658:00000016
#0093a0:14343400
#009380:00000034
#0103a0:34342400
#011320:14343400
#011340:00000034
#012320:34342400
#013380:14343400
#0133a0:00000034
#014380:34342400
#015340:14343400
#015320:00000034
#016340:34342400
#0253a0:14
#025380:0034
#0263a0:34
#026380:0024
#027320:14
#027340:0034
#028320:34
#028340:0024
#0293a0:14
#029380:0024
#030320:14
#030340:0024
#031380:16
#0323a0:24
#048320:1626
#0493a0:14
#050380:24
#051320:14
#052340:24
#053380:14
#0543a0:24
#055340:14
#056320:24
#0573a0:14
#057390:00340000
#057380:00003434
#058380:34
#058390:00340000
#0583a0:00003424
#059320:14
#059330:00340000
#059340:00003434
#060340:34
#060330:00340000
#060320:00003424
#0613a0:14
#061390:00340000
#061380:00003424
#062320:14
#062330:00340000
#062340:00003424
#063380:14
#063390:00340000
#0633a0:00003424
#064340:14
#064330:00340000
#064320:00003434
#065350:0000005400000000
#066320:24
#072380:14
#073360:28
#084380:0000000000001636
#085390:00540000
#086380:00000026
#095320:16
#097320:23
