This file was generated by Ched 2.7.0.0.
#TITLE ""
#ARTIST ""
#DESIGNER ""
#DIFFICULTY 0
#PLAYLEVEL
#SONGID ""
#WAVE ""
#WAVEOFFSET 0
#JACKET ""
#REQUEST "ticks_per_beat 480"
#00002: 4
#BPM01: 119
#00008: 01
#TIL00: ""
#HISPEED 00
#MEASUREHS 00
#0011a:14
#00214:14
#00318:14
#00412:14
#0051a:14
#00614:14
#00912:14
#01018:14
#0131a:14
#01414:14
#01518:14
#01612:14
#02112:0016
#02118:26
#02218:16
#02212:0016
#02518:0016
#02612:16
#02618:0016
#02818:16
#03814:14
#03918:14
#04212:0016
#04218:26
#0421f:21
#04210:0041
#04318:16
#04312:0016
#04618:0016
#04712:16
#04718:0016
#04918:16
#05316:0014
#0331f:11
#01110:41
#01710:41
#02310:41
#02910:41
#05010:41
#0073a0:14
#0083a0:24
#011320:14
#012320:24
#017390:14
#018390:24
#019330:14
#020330:24
#023380:1626
#024320:16363636
#025320:26
#027320:1626
#029320:14
#029330:0034
#030340:34
#030330:0034
#031320:34
#031330:000000000000340034000024
#0333a0:14
#034380:34
#0353a0:34
#036380:34
#0373a0:24
#040320:14
#041320:24
#044380:1626
#045320:16363636
#046320:26
#048320:1626
#050320:14
#050330:0034
#051340:34
#051330:0034
#052320:34
#052330:000000000000340034000024
#0543a0:14
#054390:0034
#055380:34
#055390:0034
#0563a0:34
#056390:000000000000340034000024
