This file was generated by Ched 2.7.0.0.
#TITLE ""
#ARTIST ""
#DESIGNER ""
#DIFFICULTY 0
#PLAYLEVEL
#SONGID ""
#WAVE ""
#WAVEOFFSET 0
#JACKET ""
#REQUEST "ticks_per_beat 480"
#00002: 4
#BPM01: 119
#00008: 01
#TIL00: ""
#HISPEED 00
#MEASUREHS 00
#0011c:12
#00116:000012000000000000000012
#00114:000000000012000000000000
#0011a:0012
#00118:00000012
#00112:00000012
#00214:001200000000
#0021c:000000000012000000000000
#0021a:000000000000000012120012
#00216:000000000012000000000000
#0031a:12
#0031c:000000120000000000000012
#00316:000000120000000012000000
#00312:000000000012000000000012
#00418:000000000000000013000013
#00415:00000013
#00515:000013000013000000130000
#00518:000000130000000013000013
#00615:00130000
#00618:001300
#00612:000000000013000000000013
#0061b:000013
#00616:00000013
#00717:1313
#0071b:001300001300
#00716:00130013
#00712:000000000013000000000013
#00814:000000130000000013130000
#00816:000000000013000000000000
#00812:000000000000000000000013
#00817:13
#0081b:000000000000000000000013000000000000000000000000
#0091b:000013130013000000000000
#00912:000000000000000013130000
#00918:000000000000000000000013
#00916:000000000013000000000000
#01012:000000000023000000000013
#01015:23230000
#0101b:002300002300
#01018:002300
#01016:000023
#01117:130000000000130000000013
#0111b:001300001300
#01116:00130013
#01112:000000000013000000000013
#01110:41
#0121b:0013
#01215:000000000000001300000013
#01218:000000001313
#01212:00000013
#0131b:13000013
#01312:00131300
#01318:000000000000001300000013
#01315:000000001313
#01415:0013
#01418:000013
#01412:13000013
#0141b:00130000
#01416:000000000000000000000033
#01512:00130013
#0151b:130000000013000000000000
#01516:0013
#01517:003300001300
#0161a:14
#01614:001400000000000000000000
#01619:001400000000
#01613:00140000
#01618:000014000013
#01612:000000000014000013000000
#01617:0014
#0161b:000013
#01615:000000000000000000000013
#0171b:13
#01715:001313000013
#01718:000000000013000000000000
#01710:41
#01815:000000000013000000000013
#01812:130013
#01818:001313000000
#0181b:13
#01918:130000131300
#01915:00130013
#0191b:000033000000000000000013
#01912:000000000033000000000000
#02012:000000000013000000130000
#02017:0013
#0201b:0000000000130000
#02016:0000000000000013
#02117:000000000013000000000013
#02112:2313
#02116:000013
#0211b:23000013
#02212:130000000000130000000013
#02215:001300
#02218:000000000013000000000000
#0221b:00130013
#02318:000013130000000000000013
#02312:130000000000000000000013
#02315:000000000013130000000000
#0231b:000000000000000013130000
#02310:41
#02416:000000000000000000000013
#02412:23
#02418:23
#02413:00230000
#02419:00230000
#02414:0023
#0241a:0023
#02415:00000023
#0241b:00000023
#0251b:13
#02512:000013000013
#02518:000000000013000000000000
#02715:001300001300
#02718:00131300
#02712:130000000013000000000013
#0271b:13000013
#02717:000000000000000000000013
#02818:000013
#02815:000000000000000000130013
#02918:13
#02917:000000130000000000000033
#0291b:000000000013130000130000
#02912:000000130000000000000013
#02916:000000000033000000130000
#02910:41
#03017:001300000000
#0301b:000000000013000000000000
#03016:000000000013000000000000
#03015:000013
#03018:000000000000000000130013
#03116:000000130000000013000000
#03117:000000000013130000000013
#03115:13
#0311b:00130000
#03112:000000000033000000000013
#0331c:00120000
#0331a:0012
#03318:00000012
#03316:00120000
#0331f:11
#03416:12000012
#03414:00120000
#03412:000000000000120000000012
#0341c:00000012
#03717:13
#0371b:000000130000000013000000
#03715:0013
#03718:000000000000001300000000
#03712:13000013
#03716:000000000000000000000013
#0381b:13000013
#03818:0013
#03815:000000000000001300000000
#03812:000000130000000013000013
#03817:000000000000000000000013
#03917:130000000023
#03919:001300002300
#0391b:000013230000
#03916:000023130000
#03914:002300001300
#03912:230000000013
#03215:0013
#03218:0013
#03518:12
#0351c:000012000000000000000012
#03516:000000120000000000000012
#03512:000000000012000000120000
#03616:12
#0361c:12
#03618:0000001200000000
#03612:0000001200000000
#04012:0013
#04017:0013
#04016:23
#0401b:23
#0411b:000000000013000000130000
#04116:0013
#04112:0000000000130000
#04117:0000000000000013
#04915:000013
#04918:000000000000000000130013
#05015:13
#05016:000000130000000000000033
#05012:000000000013130000130000
#0501b:000000130000000000000013
#05017:000000000033000000130000
#05010:41
#05116:001300000000
#05112:000000000013000000000000
#05117:000000000013000000000000
#05118:000013
#05115:000000000000000000130013
#05217:000000130000000013000000
#05216:000000000013130000000013
#05218:13
#05212:00130000
#0521b:000000000033000000000013
#05318:001200000000
#05314:000000120012000000000000
#0531a:000000121200
#05316:000000000000000000120012
#05418:13
#05417:000000130000000000000033
#0541b:000000000013130000130000
#05412:000000130000000000000013
#05416:000000000033000000130000
#0551b:000000000013000000000000
#05516:000000000013000000000000
#05515:000013
#05518:000000000000000000130013
#05517:001300000000
#05615:13
#05616:000000130000000013000000
#05617:000000000013130000000013
#0561b:00130000
#05612:000000000033000000000013
#02612:13
#0261b:130013000013
#02615:000000000013000000000000
#04216:000000000013000000000013
#0421b:2313
#04217:000013
#04212:23000013
#0421f:21
#04210:0041
#0431b:130000000000130000000013
#04318:001300
#04315:000000000013000000000000
#04312:00130013
#04415:000013130000000000000013
#0441b:130000000000000000000013
#04418:000000000013130000000000
#04412:000000000000000013130000
#04517:000000000000000000000013
#0451b:23
#04515:23
#0451a:00230000
#04514:00230000
#04519:0023
#04513:0023
#04518:00000023
#04512:00000023
#04612:13
#0461b:000013000013
#04615:000000000013000000000000
#04818:001300001300
#04815:00131300
#0481b:130000000013000000000013
#04812:13000013
#04816:000000000000000000000013
#0471b:13
#04712:130013000013
#04718:000000000013000000000000
#0035c:00520000
#00558:000000000000000000000053
#00555:000000000053000000000000
#00458:000000000000000000000053
#00852:000000000000000000000053
#00857:53
#0085b:000000000000000000000023000000000000000000000000
#0095b:000000000053000000000000
#01152:000000000000000000000053
#0135b:53
#01357:00130000
#01352:00130000
#01452:63000053
#0145b:00130000
#01456:00130000
#0155b:53
#0175b:53
#01852:630013
#01958:53
#01955:00530053
#01952:000000000000000000000013
#0195b:000000000000000000000013
#0215b:43
#02152:33
#02057:0053
#02052:00000053
#0205b:0000000000230000
#02056:0000000000000023
#02252:5353
#02255:00000013
#0225b:00000013
#0255b:53
#02752:000000000000000000000053
#02757:000000000000000000000053
#02952:00530000
#0295b:00000063
#03156:00630000
#03157:000000000000530000000013
#03255:0053
#03258:0053
#0365c:52
#03656:52
#03658:0000002200000000
#03652:0000002200000000
#03752:53
#03756:00130000
#0375b:00130000
#0385b:53
#03852:00130000
#03857:00130000
#04056:53
#04052:0023
#04057:0023
#0405b:53
#04156:0063
#04152:0000000000230000
#0415b:00000063
#04157:0000000000000023
#05256:000000000000630000000013
#05257:00530000
#0505b:00630000
#05052:00000053
#05452:00530000
#0545b:00000063
#02652:63
#0435b:6363
#04352:00000013
#04358:00000013
#04652:63
#04856:000000000000000000000063
#0485b:000000000000000000000063
#0475b:53
#0425b:43
#04252:33
#05657:000000000000530000000013
#05656:00630000
#001380:000000120022000000000000
#0023a0:122200000000
#002340:000000000000000012000022
#0033c0:00120000
#003380:000000000022000000000000
#003380:000000122200
#004380:000000000000000000000013
#0053b0:002300000000
#005350:000000000013000000000000
#005320:000023
#005380:000000000000000000000013
#0063b0:002300000000
#008370:130000000000000000000023
#0083b0:000000000000000000000053000000000000000000000000
#008321:000000000000000000000013
#009361:002300000000
#0093b1:000000000013000000000000
#009371:000023
#011321:000000000000000000000013
#012361:0023
#0133b1:13
#013371:00230000
#014321:13
#014361:00230000
#014321:00000013
#014361:000000000000000000000033
#015361:23
#0153b0:13
#015370:000033230000000000000000
#0173b0:13
#017380:002300000000
#017320:000000132300
#017381:000000001323
#018321:13
#018351:002300000000
#0183b1:000000132300
#019381:13
#0193b1:000033230000000000000000
#019350:00130000
#019320:000000000033230000000000
#019350:00000013
#019320:000000000000000000000023
#020370:00001323
#0203b0:0000000000530000
#020321:00000013
#020361:0000000000000053
#021321:23
#022321:13
#022351:00230000
#022321:0013
#022351:00000023
#0253b1:13
#025381:002300
#025351:000000132300
#025380:000000001323
#026320:13
#026350:002300
#026380:000000132300
#026351:000000001323
#027321:000000000000000000000013
#028361:0023
#027370:000000000000000000000013
#0283b0:0023
#029320:00130000
#029360:000000000033230000000000
#0293b0:00000013
#029370:000000000000000000000033
#030370:23
#030321:132300000000
#031361:00130000
#031321:000000000033230000000000
#031370:0013
#0313b0:000023
#032380:0013
#0333c0:22
#032351:0013
#033321:22
#035381:00001222
#0363c1:12000022
#036381:0000005200000000
#036360:12000022
#036320:0000005200000000
#037320:13
#037360:00230000
#0383b0:13
#038370:00230000
#040360:13
#040320:0053
#041360:23
#0403b1:13
#040371:0053
#0413b1:23
#041361:00001323
#041321:0000000000530000
#0413b0:00000013
#041370:0000000000000053
#0423b0:23
#0433b0:13
#043380:00230000
#0433b0:0013
#043380:00000023
#046320:13
#046350:002300
#046380:000000132300
#046351:000000001323
#0473b1:13
#047381:002300
#047351:000000132300
#047380:000000001323
#0483b0:000000000000000000000013
#049370:0023
#048361:000000000000000000000013
#049321:0023
#0503b1:00130000
#050371:000000000033230000000000
#050321:00000013
#050361:000000000000000000000033
#051361:23
#0513b0:132300000000
#052370:00130000
#0523b0:000000000033230000000000
#052361:0013
#052321:000023
#054321:00130000
#054361:000000000033230000000000
#0543b1:00000013
#054371:000000000000000000000033
#055371:23
#055320:132300000000
#056360:00130000
#056320:000000000033230000000000
#056371:0013
#0563b1:000023
