This file was generated by Ched 2.7.0.0.
#TITLE ""
#ARTIST ""
#DESIGNER ""
#DIFFICULTY 0
#PLAYLEVEL
#SONGID ""
#WAVE ""
#WAVEOFFSET 0
#JACKET ""
#REQUEST "ticks_per_beat 480"
#00002: 4
#BPM01: 119
#00008: 01
#TIL00: ""
#HISPEED 00
#MEASUREHS 00
#0011a:12
#00116:001200000000
#00114:00000012
#00118:000000000000000000000012
#0021a:000000000012000000000000
#00218:000012
#00214:000000000012000000000000
#0031b:000000000000000000000012
#00313:000000000000000000000012
#00418:000013
#00415:00000013
#0041b:000000000000000000000013
#00515:000013000000000000130000
#00518:000000130000000013000000
#00512:000000000013000000000000
#0051b:000000000000000000000013
#00612:000013
#00618:00000013
#00615:000000000000000000000013
#0071b:1313
#00712:001300001300
#00718:00130013
#00715:000000000013000000000013
#00912:001300000000
#00918:000000130000000000000013
#00915:000000000013000000130000
#0091b:000013
#0101b:000000000000000023000013
#01012:230023
#01115:1313
#01118:001300001300
#01112:00130013
#0111b:000000000013000000000013
#01110:41
#01415:000000000000130000000013
#01418:000013
#01412:00000013
#01515:000000000013000000000000
#0151b:1313
#01518:001300001300
#01512:00130013
#0171b:13
#01715:001300
#01718:000000000013000000001300
#01712:0013
#01710:41
#01812:130000000000000000000013
#01818:001300
#01815:000000000013000000000000
#0181b:0013
#01918:13001313
#01915:001300001300
#0191b:00130000
#01912:000000000013000000000000
#02015:000000000013000000000000
#02018:0013
#0201b:00000013
#02112:000000000013000000000013
#02118:2313
#02115:000013
#0211b:00000013
#02218:130000000013000000000013
#02212:0013
#02215:001300
#02318:000000000000000000000014
#02312:13
#02319:001300000000
#02313:00130000
#0231a:000000000013000000000000
#02314:0013
#0231b:000013
#02315:00000013
#02310:41
#02415:000000000000000000000013
#02412:24
#02418:00240000
#02414:0024
#0241a:00000024
#02518:130000000013
#02515:000013
#02712:000013000000000000000013
#02718:00131300
#02715:000000000013000013000000
#0271b:13000013
#02818:000013
#02815:000000000000000000130013
#02918:130000000000000000000033
#02912:00130000
#0291b:00000013
#02915:000000000033000000000000
#02910:41
#0301b:000000000013000000000000
#03015:000013
#03018:000000000000000000130013
#03118:000000130000000000000013
#03115:13
#0311b:000000000033000000000000
#0331b:00120000
#03315:0012
#0331a:00000012
#0331f:11
#03414:120000000000000000000012
#03419:00120000
#03413:0012
#03418:00000012
#03715:000000000000130013000013
#03718:130000000000001300130000
#0381b:13
#03815:000000000000130013000013
#03818:000000000000001300130000
#0081b:13
#03518:120012000000000000000012
#03516:000000120012000000000000
#03616:12
#03612:0000001200000000
#04012:0014
#04018:0014
#04014:24
#0401a:24
#0531a:001200000000
#05316:000000120012000000000000
#05318:000000121200
#05314:000000000000000000120012
#01212:000000000000133333003333
#01216:00000013
#0131b:000000000000133333003333
#01317:00000013
#01612:000014
#01618:000000000013
#01615:000000000000000000000013
#0161a:003434000000000000000000
#02612:13
#02618:000013
#02615:000000000013
#03215:0013
#04118:000000000013000000000000
#04115:0013
#04112:00000013
#0421b:000000000013000000000013
#04215:2313
#04218:000013
#04212:00000013
#0421f:21
#04210:0041
#04315:130000000013000000000013
#0431b:0013
#04318:001300
#04414:000013000000000000000014
#0441b:13
#0441a:00130000
#04413:000000000013000000000000
#04419:0013
#04412:000013
#04418:00000013
#04518:000000000000240000000013
#0451a:24
#04514:00240000
#04512:00000024
#04615:130000000013
#04618:000013
#0481b:000013000000000000000013
#04815:00131300
#04818:000000000013000013000000
#04812:13000013
#04915:000013
#04918:000000000000000000130013
#05015:130000000000000000000033
#0501b:00130000
#05012:00000013
#05018:000000000033000000000000
#05010:41
#05112:000000000013000000000000
#05118:000013
#05115:000000000000000000130013
#05215:000000130000000000000013
#05218:13
#05212:000000000033000000000000
#0471b:13
#04715:000013
#04718:000000000013
#05418:130000000000000000000033
#05412:00130000
#0541b:00000013
#05415:000000000033000000000000
#0551b:000000000013000000000000
#05515:000013
#05518:000000000000000000130013
#05618:000000130000000000000013
#05615:13
#0561b:000000000033000000000000
#0391a:240000000024
#03916:002400002400
#03912:000024240000
#0085b:53
#0115b:000000000000000000000053
#0175b:53
#01752:0053
#01852:63
#0185b:0053
#01858:000013
#01958:00000063
#0195b:000000000000000000000013
#02258:53
#02252:0053
#02255:00000013
#02558:53
#02752:000000000000000000000053
#02952:00530000
#0295b:00000063
#03158:000000630000000000000013
#03656:52
#03652:0000002200000000
#03758:53
#0375b:00130000
#0385b:53
#03858:00130000
#04052:0024
#04054:54
#04058:0024
#0405a:54
#0055b:000000000000000000000053
#01052:53
#01352:00130000
#0135b:0063
#01357:00000023
#01252:0053
#01256:00000023
#0145b:00130000
#02158:13
#02058:0053
#0205b:00000053
#02652:53
#03255:0053
#04355:63
#0435b:0063
#04358:00000013
#04655:63
#05255:000000530000000000000013
#0485b:000000000000000000000063
#0505b:00630000
#05052:00000053
#04155:0063
#04152:00000063
#0475b:63
#04255:13
#05658:000000630000000000000013
#05452:00530000
#0545b:00000063
#001380:000000120032220000000000
#002360:122200000000
#002360:000000000000000000120032
#003360:22
#0033a0:000000120022000000000000
#003340:000000122200
#0053b0:000000000000000000000013
#006380:000033333323000000000000
#0083b0:13
#008380:00000023
#010320:13
#010350:000033333323000000000000
#0113b0:000000000000000000000013
#012380:00230000
#012320:000000000000133333003333
#012360:00000033
#013320:33230000
#0133b0:000000000000133333003333
#013370:00000033
#0143b0:33230000
#0163a0:143434000000000000000000
#016360:000000343434240000000000
#0173b0:13
#017380:002300000000
#017320:0013
#017350:000023
#018320:13
#018350:002300000000
#0183b0:0013
#018380:000023
#019380:00000013
#0193b0:000000000000000000000023
#020380:0013
#0203b0:00000033
#021380:23
#022380:13
#0223b0:00230000
#022320:0013
#022350:00000023
#025380:13
#0253b0:000000003333230000000000
#026320:13
#026350:000000003333230000000000
#027320:000000000000000000000013
#028350:0023
#029320:00130000
#029350:000000000033230000000000
#0293b0:00000013
#029380:000000000000000000000033
#030380:23
#030351:132300000000
#031381:00130000
#0313b1:000000000033230000000000
#031350:000000132300
#032350:0013
#033320:23
#0353a0:00001222
#036360:12000022
#036320:0000005200000000
#037380:13
#0373b0:00230000
#0383b0:13
#038380:00230000
#040340:14
#040320:0054
#041340:24
#0403a1:14
#040381:0054
#0413a1:24
#041351:0013
#041321:00000033
#042351:23
#043351:13
#043321:00230000
#0433b1:0013
#043381:00000023
#046351:13
#046321:000000003333230000000000
#0473b1:13
#047381:000000003333230000000000
#0483b1:000000000000000000000013
#049381:0023
#0503b1:00130000
#050381:000000000033230000000000
#050321:00000013
#050351:000000000000000000000033
#051351:23
#051380:132300000000
#052350:00130000
#052320:000000000033230000000000
#052381:000000132300
#054321:00130000
#054351:000000000033230000000000
#0543b1:00000013
#054381:000000000000000000000033
#055381:23
#055350:132300000000
#056380:00130000
#0563b0:000000000033230000000000
#056351:000000132300
