This file was generated by Ched 2.7.0.0.
#TITLE ""
#ARTIST ""
#DESIGNER ""
#DIFFICULTY 0
#PLAYLEVEL
#SONGID ""
#WAVE ""
#WAVEOFFSET 0
#JACKET ""
#REQUEST "ticks_per_beat 480"
#00002: 4
#BPM01: 119
#00008: 01
#TIL00: ""
#HISPEED 00
#MEASUREHS 00
#0011c:1212
#00116:000012120000000000000012
#00112:120000000012120000120000
#00212:000012000000000012120000
#0021c:000000000012000000000000
#00216:120000000012000000000012
#00316:120000120000000012000000
#0031c:000000120000000000000012
#00312:000000000012120000000012
#0041b:000000000000000013130013
#00512:000013130013000000000013
#0051b:000000000000000013130000
#00517:000000000000000000000013
#00616:000013000000000000140000
#00618:00160000
#00615:001600
#00612:000000000016000000000013
#0061b:000000000000000013130000
#00716:14141414
#0071b:000013130000000013130000
#00712:130000000013130000000013
#00814:000000120000000012120000
#00816:140000000012000000000000
#00812:130000000000000000000013
#0081a:000000000000000000000014000000000000000000000000
#0091b:000013000013000000000013
#00916:000000180013000000000000
#00912:000000000000000013180013
#01012:000000000013000000000000000000000000000000001300
#01018:130000000023000023000000
#01015:230033333300000000000000
#0101b:000023232300000000000000
#01116:14141414
#0111b:000013130000000013130000
#01112:130000000013130000000013
#01110:41
#01216:141300000000
#0121b:0013
#01219:000000000000001300000013
#01217:000000001313
#01215:00000013
#01212:131300
#01214:001300130013000000000000
#0131b:1313
#01312:00131300
#01316:140000001313
#01314:000000000000001300000013
#01318:00000013
#01412:1300000013000013
#0141b:000000130000000013130013
#01416:140000000000000000130033
#01417:0013
#01516:00001414
#0151b:133300000000
#01517:0013000000000000
#01512:000013130000000000000000
#0161a:140000000014
#01616:000014000014000000000014
#01618:001400140000000000000000
#01612:00141400
#01614:141400
#0171b:130000001313000000000000
#01712:141300000013
#01717:0013
#01716:000013
#01710:41
#01812:130000001313000013000013
#0181b:001300000000
#0181a:14
#01816:0013
#0191b:000000130000000000130013
#01912:1313
#01916:000013000000000013130000
#01917:000000000013000000000000
#02012:000000000013130000000000
#0201b:000000000000000000001300130000000000000000130000
#02014:00000013
#02016:0000000000000013
#02019:00000013
#02017:0000000000130000
#02116:000000000014140014140014
#02112:2313
#0211b:00000013
#02117:23
#02212:1313
#02218:001300
#02215:000000000013000000000000
#0221b:00130013
#02216:14
#02217:000000000000000000000014
#0231b:130000130000130000130013
#02312:130000130000130000130013
#02316:001400001400
#02315:000000000014000000000000
#02310:41
#02416:000000000000000000000013
#02412:23
#0241b:23
#02413:00230000
#0241a:00230000
#02414:0023
#02419:0023
#02415:00000023
#02418:00000023
#0251b:130000130013
#02512:001313
#02514:000000000013000000000000
#02516:1313
#02712:000013130000000013130000
#0271b:130000000013130000000013
#02716:000000000000000000000013
#0281b:000013
#02818:00000013
#02815:000000000000000000000013
#02817:000000000013000000000000000000000000000000000000
#02812:000000000013000000000000000000000000000000000000
#02912:130000130033000000000013
#02917:0000130013000013
#0291b:130000000013000000130033
#02916:0000001300001300
#02910:41
#03017:000000000013000000000000
#03012:000000000013000013000000
#03015:00000013
#03018:000000000000000000000013
#0301b:001300000000
#03116:000000130000130014000014
#0311b:130000130033000000000000
#03112:130000000013000000000000
#03117:0000001300000000
#0371b:130000130000000000000013
#03712:13001413
#03714:000000000000001400000000
#03716:000000130000000000000000000000001400000000001400
#03718:00000014
#0381a:000000000000140000000014
#03812:130000130000000000000014
#0381b:13000013
#03817:0013000000000000
#03818:000000000000001400000000
#03816:000014
#03814:00000014
#03916:142414142414
#0391a:001400240024
#03912:242414
#03216:0012
#03218:0012
#03219:0000000000000012
#0321a:00000012
#0321b:0000000000120000
#03213:0000000000120000
#03214:00000012
#03215:0000000000000012
#03412:000000000000000000120012
#0341a:12121200
#03418:0000001200000000
#0341c:0012000000120000
#03416:00120000
#03414:0012
#03517:120000120000120000000012
#0351c:000000001200120000000000000000120000000000001200
#03512:120000000012120000120000
#03617:1200001200000000
#0361c:12
#03612:0000001200000000
#0531a:000012120000000000000012
#0531c:000000000012120000000000
#05318:000000000000000012120000
#05314:000012120000120000120000
#05312:0000001200000012
#05316:0000000000120000
#02612:130000130013
#0261b:001313
#02619:000000000013000000000000
#02617:0013
#03314:00121212
#03316:0000000000120000
#03312:0000001200000012
#0331c:00120000
#0331a:0012
#03318:00000012
#0331f:11
#0401a:0014
#04016:2413
#04012:23
#0411b:000000000013130000000000
#04112:000000000000000000001300130000000000000000130000
#04119:00000013
#04117:0000000000000013
#04114:00000013
#04116:0000000000130000
#04216:230000000014140014140014
#0421b:2313
#04212:00000013
#0421f:21
#04210:0041
#0431b:1313
#04315:000000001300000000000014
#04318:000000000013000000000000
#04312:00130013
#04316:14
#04412:130000130000130000130013
#0441b:130000130000130000130013
#04416:001400001400
#04417:000000000014000000000000
#04517:000000000000000000000013
#0451b:23
#04512:23
#0451a:00230000
#04513:00230000
#04519:0023
#04514:0023
#04518:00000023
#04515:00000023
#04612:13
#0461a:001400
#04618:000000000014000000000000
#04617:13
#04616:0014
#04912:000013
#04915:00000013
#04918:000000000000000000000013
#04916:000000000013000000000000000000000000000000000000
#0491b:000000000013000000000000000000000000000000000000
#0501b:130000130033000000000013
#05016:0000130013000013
#05012:130000000013000000130033
#05017:0000001300001300
#05010:41
#05116:000000000013000000000000
#0511b:000000000013000013000000
#05118:00000013
#05115:000000000000000000000013
#05112:001300000000
#05212:130000130033000000000000
#0521b:130000000013000000000000
#05217:00131300
#05216:000000000000000000130000000000001400000000001400
#0471b:13
#04712:001400
#04714:000000000014000000000000
#04716:0014
#04812:130000000013130000000013
#0481b:000013130000000013130000
#04817:000000000000000000000013
#0541a:12
#05417:0000130013000013
#0541b:000000000013000000130033
#05412:000000130033000000000013
#05416:0000001300001300
#05517:000000000013000000000000
#05512:000000000013000013000000
#05515:00000013
#05518:000000000000000000000013
#0551b:001300000000
#0561b:130000130033000000000000
#05612:130000000013000000000000
#05616:000000130000130014000014
#05617:0000001300000000
#0035c:00520000
#00557:000000000000000000000053
#00552:000000000053000000000000
#0045b:000000000000000000000053
#00852:000000000000000000000053
#00856:54
#0085a:000000000000000000000024000000000000000000000000
#0095b:000000000053000000000000
#0135b:53
#01356:00140000
#01352:00130000
#0175b:53
#01752:005300000000
#01757:0053
#01756:000053
#01952:000000000000000000000013
#0195b:000000000000000000000013
#01956:00000053
#02252:5353
#02256:00000013
#0225b:00000013
#0255b:530000530053
#02552:000053
#02556:0013
#0275b:000000000000000000000063
#02756:000000000000000000000063
#02952:00530000
#02956:0000002300000000
#0295b:00000063
#02957:0000000000000023
#03256:0052
#03258:0052
#0325a:00000052
#03254:00000052
#0325b:0000000000220000
#03259:0000000000000022
#03255:0000000000000022
#03253:0000000000220000
#0365c:52
#03657:5200002200000000
#03652:0000002200000000
#03752:53330000
#03756:0023000000000000
#0375b:00430000
#01055:53
#01052:000000000023000000000000000000000000000000000000
#01452:6300000000000023
#0145b:00130000
#01456:00140053
#0155b:53
#01557:0023000000000000
#01852:630013
#0185b:006300001300
#01856:0063
#02152:33
#02157:33
#0205b:0000000053000023
#02059:00000053
#02054:00000053
#02056:0000000000000023
#02057:0000000000230000
#02458:00000013
#02455:00000013
#02652:630000530053
#0265b:000053
#02657:0013
#02857:000000000023000000000000000000000000000000000000
#02852:000000000023000000000000000000000000000000000000
#0315b:00630000
#03157:0000002300000000
#03156:000000000000530054000034
#0315a:000000000000000000000034
#03354:00525252
#03352:0000002200000022
#03356:0000000000220000
#0345a:62626200
#03458:0000002200000000
#0345c:0022000000220000
#03852:00330000
#0385b:63430000
#03857:0023000000000000
#04052:53
#04056:5423
#0405a:0024
#0435b:6363
#04352:00000013
#04357:00000013
#04652:63
#04656:0014
#0505b:00630000
#05057:0000002300000000
#05052:00000053
#05056:0000000000000023
#04159:00000063
#04152:0000000063000023
#04157:0000000000000023
#04154:00000063
#04156:0000000000230000
#0475b:53
#04756:0014
#05257:0063
#05252:000000530000000000000044
#05256:000000000000000000230000000000005400000000004400
#04558:00000013
#04555:00000013
#04256:43
#0425b:43
#05452:00530000
#05456:0000002300000000
#0545b:00000063
#05457:0000000000000023
#05656:000000000000530064000034
#0565b:00630000
#05657:0000002300000000
#0565a:000000000000000000000034
#01252:232300
#01256:002300000000
#01254:005300530053000000000000
#05354:00525252
#05352:0000002200000022
#05356:0000000000220000
#04857:000000000000000000000053
#04852:000000000000000000000053
#04956:000000000023000000000000000000000000000000000000
#0495b:000000000023000000000000000000000000000000000000
#03557:0052
#0355c:0000000000220000
#001380:00120000
#0013c0:000000000022000000000000
#001380:00000012
#0013c0:000000000000000000000022
#0023c0:12
#002380:002200000000
#002380:000000000000000012000022
#0033c0:00120000
#003380:000000000022000000000000
#003380:000000122200
#0043b0:000000000000000000000013
#005370:002300000000
#005320:000000000013000000000000
#005360:000023
#005370:000000000000000000000013
#0063b0:002300000000
#008360:140000000000000000000024
#0083a0:000000000000000000000054000000000000000000000000
#008321:000000000000000000000013
#009361:002300000000
#0093b1:000000000013000000000000
#009371:000023
#010351:130033333333000023000000
#010321:000000000053000000000000000000000000000000000000
#012321:135300
#012341:005300530053000000000000
#012361:005300230000
#0133b1:13
#013361:00240000
#014321:13
#014361:00240000
#014361:000000000000000000130033
#014321:0000000000000053
#015361:23
#0153b0:130033230000000000000000
#015370:0053000000000000
#0153b0:000000000013230000000000
#015320:000000000000000013230000
#0163a0:000000142400
#016361:000000001424
#0173b1:13
#017361:002300000000
#017320:001300000000
#017370:002300
#017370:0013
#017320:000023
#017361:000013
#0173b1:000000000023
#018321:13
#018371:002300000000
#0183b0:001300000000
#018360:002300
#018360:0013
#0183b0:000023
#019370:13
#0193b0:002300000000
#019360:00130000
#019320:000000000023000000000000
#019370:0013
#0193b0:000023
#019360:00000013
#019320:000000000000000000000023
#0203b0:0000000013000053
#020370:0000000000530000
#020390:00000033
#021370:23
#020341:00000013
#020361:0000000000000053
#021321:23
#022321:13
#022361:00230000
#022321:0013
#022361:00000023
#0253b1:13
#025371:002300
#0253b1:0013
#025371:000023
#025320:000013
#025360:000000000023
#0253b1:000000000013
#026371:23
#026320:13
#026360:002300
#026320:0013
#026360:000023
#0263b1:000013
#026371:000000000023
#026320:000000000013
#027360:23
#027360:000014240000000000000000
#027360:000000000014240000000000
#027360:000000000000000014240000
#0273b0:000000000000000000000013
#028370:000000000053000000000000000000000000000000000000
#0283b0:0023
#027361:000000000000000000000013
#028321:000000000053000000000000000000000000000000000000
#028361:0023
#029321:000000130033230000000000
#029361:0000005300000000
#0293b1:000000000000000000130033
#029371:0000000000000053
#0303b1:23
#030360:132300000000
#0313b0:000000130033230000000000
#031370:0000005300000000
#031361:0013
#031321:000023
#031360:000014
#0313a0:000000000000000000000024
#032380:0012
#0323b0:0000000000520000
#0323a0:00000052
#032390:0000000000000052
#0333c0:22
#032361:0012
#032331:0000000000520000
#032341:00000052
#032351:0000000000000052
#033321:22
#033341:00123232
#033321:0000005200000052
#033361:0000000000520000
#034341:22
#0343a0:12323222
#0343c0:0052000000520000
#034380:0000005200000000
#035370:00001222
#0353c0:0000000000520000
#0363c0:12000022
#036370:0000005200000000
#036371:12000022
#036321:0000005200000000
#037321:13230000
#037361:0053000000000000
#0383b1:13230000
#038371:0053000000000000
#040321:13
#040361:0053
#041321:23
#040360:14
#0403a0:0054
#041360:24
#041320:0000000013000053
#041360:0000000000530000
#041340:00000033
#042360:23
#041391:00000013
#041371:0000000000000053
#0423b1:23
#0433b1:13
#043371:00230000
#0433b1:0013
#043371:00000023
#046321:13
#046371:002300
#046321:0013
#046351:000023
#046380:000013
#0463b0:000000000023
#046351:000000000013
#047381:23
#0473b0:13
#047360:002300
#0473b0:0013
#047380:000023
#047351:000013
#047321:000000000023
#047380:000000000013
#048350:23
#048360:000014240000000000000000
#048360:000000000014240000000000
#048360:000000000000000014240000
#048320:000000000000000000000013
#049360:000000000053000000000000000000000000000000000000
#049320:0023
#048371:000000000000000000000013
#0493b1:000000000053000000000000000000000000000000000000
#049371:0023
#0503b1:000000130033230000000000
#050371:0000005300000000
#050321:000000000000000000130033
#050361:0000000000000053
#051321:23
#051370:132300000000
#052320:000000130033230000000000
#052360:0000005300000000
#052371:0013
#0523b1:000023
#052360:000014
#052320:000000000000000000000024
#053340:00125252
#053320:0000005200000052
#053360:0000000000520000
#054340:22
#054320:000000130033230000000000
#054360:0000005300000000
#0543b0:000000000000000000130033
#054370:0000000000000053
#0553b0:23
#055361:132300000000
#0563b1:000000130033230000000000
#056371:0000005300000000
#056360:0013
#056320:000023
#056361:000014
#0563a1:000000000000000000000024
