This file was generated by Ched 2.7.0.0.
#TITLE ""
#ARTIST ""
#DESIGNER ""
#DIFFICULTY 0
#PLAYLEVEL
#SONGID ""
#WAVE ""
#WAVEOFFSET 0
#JACKET ""
#REQUEST "ticks_per_beat 480"
#00002: 4
#BPM01: 119
#00008: 01
#TIL00: ""
#HISPEED 00
#MEASUREHS 00
#0011a:14
#00114:00140000
#00118:0014
#00112:00000014
#0021a:14
#00218:00343400
#00312:14
#00318:00140000
#0051a:1414
#00514:00140014
#00618:1414
#00612:00140014
#0091a:14
#00914:00140000
#00918:0014
#00912:00000014
#01112:14
#01118:00140000
#01114:0014
#0111a:00000014
#01110:41
#01212:14
#01314:0014
#01318:00000014
#01418:0014
#01414:00000014
#0151a:14
#01514:00140000
#01518:0014
#01512:00000014
#0161a:14
#01618:00343434
#01714:00140000
#01710:41
#01818:00140000
#01814:14
#0191a:14
#01914:00140000
#01918:0014
#01912:00000014
#0201a:14
#02014:0014
#02018:00000014
#02118:0014
#02114:00000014
#02112:24
#02318:14
#02312:00140000
#02319:0014
#02313:00000014
#02310:41
#0241a:14
#02418:00343400
#02512:14
#02518:00140000
#02514:0014
#0251a:00000014
#02812:14
#0291a:14
#02914:14
#02912:0014
#02918:0014
#02910:41
#0301a:000000000014000000000000
#03014:000000000014000000000000
#0311a:14
#03114:14
#03112:000000000000000000000014
#03118:000000000000000000000014
#0331a:14
#0331f:11
#03418:14
#0351a:14
#03618:14
#03714:00140000
#03718:0014
#03712:00000014
#0381a:14
#03814:00140000
#03818:0014
#03812:00000014
#0401a:14
#04114:0014
#04118:00000014
#04218:0014
#04214:00000014
#04212:24
#0421f:21
#04210:0041
#04418:14
#04412:00140000
#04419:0014
#04413:00000014
#0451a:14
#04518:00343400
#04612:14
#04618:00140000
#04614:0014
#0461a:00000014
#04912:14
#0501a:14
#05014:14
#05012:0014
#05018:0014
#05010:41
#0511a:000000000014000000000000
#05114:000000000014000000000000
#0521a:14
#05214:14
#05212:000000000000000000000014
#05218:000000000000000000000014
#05318:0014
#05314:00000014
#05412:14
#05418:14
#0541a:0014
#05414:0014
#05512:000000000014000000000000
#05518:000000000014000000000000
#05612:14
#05618:14
#0561a:000000000000000000000014
#05614:000000000000000000000014
#0391a:243434003434
#00718:00343400
#00814:00343400
#0025a:54
#00354:000000000000000000000014
#0105a:000014
#01252:54
#0165a:54
#0245a:54
#02852:54
#0335a:54
#03458:54
#0355a:54
#03658:54
#0405a:54
#0455a:54
#04952:54
#0023a0:14
#002380:00343424
#003340:000000000000140034000024
#0073a0:14
#007380:00343424
#008320:14
#008340:00343424
#0103a0:140034343434000024000000
#012320:14
#012340:0024
#0133a0:14240000
#014320:14240000
#0163a0:14
#016380:00343434
#017380:24
#0173a0:00001424
#018320:00001424
#0223a0:14240000
#022340:00001424
#0243a0:14
#024380:00343424
#026320:14
#026340:00240000
#026380:0014
#0263a0:00000024
#027340:14
#027320:00240000
#0273a0:0014
#027380:00000024
#028320:14
#028340:00000024
#0303a0:142400000000
#030341:142400000000
#031321:000000142400
#031380:000000142400
#032380:0014
#0333a0:34
#034380:34
#0353a0:34
#036380:34
#0373a0:24
#0393a0:143434003434
#039380:0034
#0403a0:34
#041380:24
#0433a0:14240000
#043340:00001424
#0453a0:14
#045380:00343424
#047320:14
#047340:00240000
#047380:0014
#0473a0:00000024
#048340:14
#048320:00240000
#0483a0:0014
#048380:00000024
#049320:14
#049340:00000024
#0513a0:142400000000
#051341:142400000000
#052321:000000142400
#052380:000000142400
#055320:142400000000
#055381:142400000000
#0563a1:000000142400
#056340:000000142400
