This file was generated by Ched 2.7.0.0.
#TITLE " "
#ARTIST ""
#DESIGNER ""
#DIFFICULTY 0
#PLAYLEVEL
#SONGID ""
#WAVE ""
#WAVEOFFSET 0
#JACKET ""
#REQUEST "ticks_per_beat 480"
#00002: 4
#BPM01: 85
#00008: 01
#TIL00: ""
#VOLUME: ""
#HISPEED 00
#MEASUREHS 00
#04118:16001616
#04112:00160000
#03712:00160000
#03718:26
#02912:00160016
#02918:2616
#0291f:21
#02910:0041
#04418:0000001600000000
#04516:00160000000000000000000000000000
#0041a:1414
#00410:41
#00514:1414
#00618:1414
#00712:1414
#0081a:14
#00814:0014
#0091a:14
#00914:0014
#01018:14
#01012:0014
#01118:14
#01112:0014
#0121a:14
#01214:0014
#0161a:14
#01614:0014
#01412:14
#01418:0014
#01812:14
#01818:0014
#03118:16160000
#03112:00001616
#03212:0016
#03218:00000016
#03312:16160000
#03318:00001616
#03812:16
#03818:00160000
#03912:00160000
#03918:16
#03910:41
#04012:16
#04018:00160000
#04212:16001616
#04218:00160000
#04614:1414
#0471a:1414
#04710:41
#0481a:0014
#04812:14
#04914:14
#04918:0014
#05012:14
#03518:16
#03516:0000361636000000
#03612:16
#03614:0000361636000000
#03418:0016
#03412:00000016
#0221f:11
#02010:41
#01310:41
#04458:0000006600000000
#04556:00260000000000000000000000000000
#03558:66
#03556:0000002600000000
#03652:56
#03654:0000002600000000
#0003a0:1434
#0013a0:3424
#002320:1434
#003320:3424
#0133a0:1424
#015320:1424
#017380:1424
#019340:1424
#0203a0:14
#020380:0034
#021380:34
#0213a0:0024
#022320:14
#022340:0034
#023340:34
#023320:0024
#0243a0:14
#024380:0034
#025380:34
#0253a0:0024
#026340:14
#027320:34
#028340:24
#030380:16260000
#030320:00001626
#032380:16260000
#034320:16260000
#035380:16000026
#035360:0000365636000000
#036320:16000026
#036340:0000365636000000
#037380:00001626
#038320:00001626
#039380:00001626
#040320:00001626
#043380:16260000
#043320:00001626
#044380:1600003600000000
#045360:00560000000000000000000000000000
#045380:00000026
#0503a0:0000000014000034
#051380:00340034
#051390:0034
#052380:34340034
#052390:0034
#053380:3400340000003434
#053390:0034
#0553a0:00240000
