This file was generated by Ched 2.7.0.0.
#TITLE " "
#ARTIST ""
#DESIGNER ""
#DIFFICULTY 0
#PLAYLEVEL
#SONGID ""
#WAVE ""
#WAVEOFFSET 0
#JACKET ""
#REQUEST "ticks_per_beat 480"
#00002: 4
#BPM01: 85
#00008: 01
#TIL00: ""
#VOLUME: ""
#HISPEED 00
#MEASUREHS 00
#0001a:0012001200000000
#0001c:00120000
#00014:0000000000120012
#00012:00000012
#0011c:00120000
#00114:0000000000120000
#00112:00000012
#00118:0000001200000000
#00116:0000000000000012
#0011a:0012000000000000
#0021c:0012000000000000
#00218:00120000
#0021a:0000001200000000
#00212:0000000000120000
#00216:00000012
#00214:0000000000000012
#00417:0000130000130000
#0041b:2300001300001313
#00416:1300001300001313
#00410:41
#00716:1300000013000013
#0071b:1300000013000013
#00717:0000130000130000
#00712:0000130000131300
#00612:0000000000130000
#00614:00000013
#00619:00000013
#0061b:0000131300000013
#00616:0000000000000013
#00617:0013000000000000
#00516:0000000000001313
#00517:0000131300000000
#00512:0000131300000000
#01312:00000000000013130000000000000000
#01317:0000000000000013
#01318:0013000000000000
#01316:0000000000000000000000000000000000000013000000000000000000000000
#01310:41
#01412:1300130000130013
#01417:13000000000000000000000000000013
#0141b:0013
#02017:00001313000000000000001300000000
#02016:00000000000033130000000000130000
#0201b:13000000000033130000000000000000
#02012:00000013000000000000001300000013
#02010:41
#0151b:0013000000001300
#01516:00000013000000000000000000000000
#01518:0000000000000013
#01517:0000001300000000
#01515:00000013
#01512:13
#01116:00000000130000000000130000000013
#01114:00000000000000000000000000130000
#01117:13001313
#01112:1313
#0111b:00130000
#01119:0000000000000013
#0211b:00001313000000000013000000000013
#02117:00000000001313000000000000000000
#02112:0000001300000000
#02116:00000000000000000013000000000000
#02216:00001313000000000000001300000000
#0221b:00000013000000000000001300000000
#02212:13000000000000130000000000000000
#02217:00000000000000130000000000000000
#0221f:11
#0121b:1313
#01216:00130000
#01217:00001300000000000000001300000000
#01212:0000001300130013
#02318:13000000000013330000000000000000
#0231b:00003313000000000013000000000013
#02315:13000000000013330000000000000000
#02312:00003313000000000013000000000000
#02518:0000000000000013
#02512:00001313000000000013000000000000
#02516:00000000001313000000000000000000
#0251b:0000001300000000
#02517:00000000000000000013000000000000
#02715:00000000000013000000000000130000
#02712:1313000000130000
#02718:00000000000013000000000000130000
#0271b:1313000000130000
#02912:1300230000130013
#02916:0013000013000000
#02917:0000001300130013
#0291b:23132313
#0291f:21
#02910:0041
#03012:00131313
#03016:13
#0301b:1313
#03017:00130000
#03015:0000000000130000
#03018:0000000000000013
#03212:0000001300000000
#03218:00000000000000130000130000000000
#03215:0013
#0321b:00130000
#03216:00130000
#03416:1300130000130000
#03414:00000013
#03412:0013000000000013
#03417:0000001300000000
#0341b:1300130000130000
#03516:00000013000000000000000013000000
#0351b:0013130000001300
#03512:0000000000000013
#03517:0000000013000013
#03519:1300001300000000
#03514:0000000000130000
#0361b:00000013000000000000000000000000
#03616:00000013000000000000000000001400
#03614:0000001300000000
#03619:0000001300000000
#03617:00000000000000000013000000000000
#03612:00000000000000000013000000000000
#0371b:1300001313001300
#03712:0013000000000013
#03716:24000000000000130000000000000000
#03718:0000000000130013
#03717:0013000000000000
#03815:13000000130000000013000000000000
#03812:0013001300000000
#0381b:00131313
#03816:0000000000000014
#03818:0013001300130000
#03918:0000000000000013
#03912:1300001313001300
#03917:00000000000000130000000000000000
#0391b:0013000000000000
#03916:2413000000000000
#03915:0000000000130000
#03910:41
#0401b:13001313
#04015:0013000013000000
#04012:00000000130000000013000000000000
#04018:0000001300130000
#04014:0000000000130000
#04016:00000000000000000000001300001400
#04417:0000001300000013
#04416:2300000000130000
#0441b:1300000000130000
#04419:00000013
#04414:00000013
#04412:0000002300000013
#04516:0013000000001313
#04519:0013000000000000
#04514:1300001300000000
#04517:0000001300000000
#04515:00131300
#04518:13131300
#0451b:0000000000000013
#02815:0000000000130000
#02818:0000000000130000
#02812:23
#0281b:23
#04319:0000000013000013
#04317:0000001300001300
#0431b:0000000000130000
#04315:00130000000000000000000000000000
#04318:00130000000000000000000000000000
#04314:0000000023000023
#04312:0000002300002300
#04316:0000000000230000
#04912:1313001300000000
#0491b:0000000013130013
#04918:0000001300001300
#04915:0000130000000013
#04917:00130000000000000000000000000000
#04916:00000000000000000013000000000000
#03118:0000001300000000
#03112:13131313
#0311b:1300130013001313
#03116:0000000000000013
#03115:0013000000130000
#04112:1300001300001300
#04119:0013000000000000
#0411b:0000130013000013
#04116:2400130013000013
#04114:0013000000000000
#04117:0000001300130000
#0511a:0012001200120012
#0511c:00120012
#05118:0012
#05316:0000000012000012
#0531a:0012001200001200
#0531c:12120000
#05318:0000000000120000
#0521c:12120012
#0521a:0012001200120012
#05218:0012
#00318:0012000000001300
#00314:0000001200000000
#00315:0000000000000013
#00817:1300001300001313
#00816:0000130000130000
#00812:2300001300001313
#0101b:0000000000130000
#01019:00000013
#01014:00000013
#01012:0000131300000013
#01017:0000000000000013
#01016:0013000000000000
#00917:0000000000001313
#00916:0000131300000000
#0091b:0000131300000000
#0171b:00000000000013130000000000000000
#01712:0013000000000000
#01717:0000000000000000000000000000000000000013000000000000000000000000
#01716:00000000000000000000000000000013
#0181b:1300130000130013
#01816:13000000000000000000000000000013
#01812:0013
#0191b:1300000000000013
#01912:00001300000000000000000000000013
#01917:00000013000000000000000000000000
#01916:0000001300000000
#01918:00000013
#01915:00000000000000000000000000130000
#01612:1313
#01617:00130000
#01616:00001300000000000000001300000000
#0161b:0000001300130000
#01618:0000000000000013
#01615:00000000000000000000000000000013
#02416:00001313000000000000001300000000
#02417:00000000000033130000000000000000
#02412:13000000000033130000000000130000
#0241b:00000013000000000000001300000000
#02415:0000000000000013
#02418:00000000000000000000000000000013
#0261b:13
#0261a:0013000000000000
#02619:00130000
#02618:0000001300000000
#02615:0000000000000013
#03316:1313
#03314:0013000000000000
#03319:0000001300000000
#03317:0000130000130013
#0331b:23002313
#03312:0000230000130013
#04219:00000013
#04214:00000013
#04212:1300130013000023
#0421b:0013001300000013
#04217:1313
#04216:0000001300000000
#04716:1313
#04717:00130000
#04712:0000131300001300
#0471b:1313000013130000
#04715:00000000000000000000000000130013
#04718:0000000000000013
#04710:41
#04612:00000013
#04617:00000013
#04619:0000000000000013
#04614:0000000000000013
#0461b:0000131300000000
#04616:0000001300000000
#04818:1300000000130000
#04812:23000000130000000013000000000000
#0481b:00000013000000001300000013001300
#04815:0013001300000013
#05015:00000000130000130013000013000000
#05018:00000000000013001300000000130000
#0501b:0000000000130023
#05012:1313000000130000
#05017:00130000000000000000000000000000
#00456:5300005300000053
#0045b:1300000000000053
#00556:0000000000000053
#00557:0000002300000000
#00552:0000002300000000
#0065b:0000005300000000
#02056:00000000000000630000000000000000
#0205b:13000000000000630000000000000000
#02057:00000053000000000000000000000000
#02052:00000053000000000000000000000000
#0125b:6363
#01256:00630000
#01257:00002300000000000000006300000000
#01252:0000002300000000
#01457:63
#01452:00630000
#0225b:00000063000000000000006300000000
#02256:00000063000000000000006300000000
#02252:00000000000000530000000000000000
#02257:00000000000000530000000000000000
#02358:6300006300001300
#0235b:00000063000000000023000000000000
#02355:5300005300001300
#02352:00000053000000000023000000000000
#02755:00000000000063000000000000230000
#02752:0063000000630000
#02758:00000000000053000000000000230000
#0275b:0053000000530000
#02157:0000005300003300
#02152:0000005300003300
#0215b:00000000000000000023000000000000
#02156:00000000000000000023000000000000
#0295b:1313
#02952:0000130000230053
#02957:0000000000000053
#02956:0063
#03056:23
#0305b:2363
#03052:00130023
#03057:00130000
#03055:0000000000630000
#03058:0000000000000053
#03556:00000023000000000000000063000000
#03552:0000000000000063
#03557:0000000000000063
#03654:0000006300000000
#03659:0000006300000000
#03652:00000000000000000023000000000000
#03657:00000000000000000023000000000000
#0365b:00000023000000000000000000000000
#03656:00000023000000000000000000000000
#03756:14000000000000530000000000000000
#0375b:63430043
#03757:0023000000000000
#04452:0000005300000023
#04457:0000005300000023
#04456:5300000000230000
#0445b:5300000000230000
#04454:00000063
#04459:00000063
#04556:0023000000000053
#04559:0023000000000000
#04554:5300002300000000
#04557:0000002300000000
#04558:53635300
#04555:00635300
#0455b:0000000000000053
#03258:0000000000530000
#03257:0013000000000000
#03252:0013000000000000
#03255:0063
#02858:0000000000530000
#02855:0000000000530000
#0285b:43
#02852:33
#03452:0053000000000053
#03457:0000005300000000
#0345b:2300000000230000
#03456:23230000
#01557:0000006300000000
#03152:13531300
#0315b:2300130063000063
#03156:0000000000000063
#03855:00000000000000000023000000000000
#03852:0000005300000000
#0385b:00430043
#0505b:0000000000000013
#05057:00230000000000000000000000000000
#05055:00130000
#0075b:5300000053000053
#00756:5300000000000053
#00757:0000630000230000
#00752:00630053
#00857:6300006300000063
#00852:1300000000000063
#01157:63
#01152:6363
#01156:0000530000230000
#0115b:00530000
#00957:0000000000000063
#0095b:0000002300000000
#00956:0000002300000000
#01052:0000006300000000
#01352:00000000000000630000000033000000
#01356:0000000000000000000000000000000000000023000000000000000000000000
#01652:5353
#01657:00530000
#01656:00002300000000000000005300000000
#0165b:0000002300000000
#01856:53
#0185b:00530000
#01956:0000005300000000
#0175b:00000000000000530000000043000000
#01757:0000000000000000000000000000000000000023000000000000000000000000
#02457:00000000000000530000000000000000
#02452:13000000000000530000000000000000
#02456:00000063000000000000000000000000
#0245b:00000063000000000000000000000000
#02556:0000006300004300
#0255b:0000006300004300
#02557:00000000000000000023000000000000
#02552:00000000000000000023000000000000
#0335b:13001323
#03352:0000130000000053
#03357:0000000000530053
#03952:53330033
#03957:00000000000000630000000000000000
#03956:1423000000000000
#04052:00000000330000000023000033000000
#04054:0000000000630000
#04056:00000000000000000000002300000000
#04055:0063
#04156:1400630023000063
#04157:0000005300530000
#0415b:0000000023000063
#04152:0000005300005300
#04252:2300630023000063
#0425b:0053005300000053
#04257:2323
#04256:0000005300000000
#04756:5353
#04757:00630000
#0475b:1313
#04752:00130000
#04858:63
#04852:13000000130000000023000000000000
#0485b:00000023000000000000000013006300
#04855:0000005300000000
#04656:0000005300000000
#0465b:0000005300000000
#05356:0000000000000012
#04957:00230000000000000000000000000000
#04952:0000005300000000
#04956:00000000000000000023000000000000
#0495b:0000000000000063
#04955:00130000
#04958:00000013
#04355:00230000000000000000000000000000
#04358:00230000000000000000000000000000
#000360:1222
#000381:0012
#001381:22
#001340:1222
#0013a1:0012
#0023a1:22
#002320:1222
#0023c1:0012
#0033c1:22
#003320:12220000
#0033a1:00122200
#003360:00001222
#004360:13
#004320:00230000
#004360:0000001300000000
#004320:0000000000230000
#004360:0000000000000013
#005320:0023000000000000
#0043b1:0000000000000013
#005371:0023000000000000
#005371:0000001300000000
#0053b1:0000000000230000
#005320:0000001300000000
#005360:0000000000230000
#0053b0:0000000000001323
#005361:0000000000000013
#006321:0023000000000000
#006361:0000132300000000
#0063b0:0000001300000000
#006370:0000000000230000
#007360:13
#007320:0023000000000000
#0073b1:13
#007371:0023000000000000
#007371:00130000
#0073b1:0000002300000000
#007320:00130000
#007360:0000002300000000
#0073b0:00001323
#007370:0000000000530000
#007321:00000013
#007361:0000000000000033
#008321:23
#0073b0:0000000000000013
#008370:33
#0083b0:00230000
#008370:0000001300000000
#0083b0:0000000000230000
#008370:0000000000000013
#0093b0:0023000000000000
#008321:0000000000000013
#009361:0023000000000000
#009361:0000001300000000
#009321:0000000000230000
#0093b0:0000001300000000
#009370:0000000000230000
#009320:0000000000001323
#009371:0000000000000013
#0103b1:0023000000000000
#010371:0000132300000000
#010320:0000001300000000
#010360:0000000000230000
#011370:13
#0113b0:0023000000000000
#011321:13
#011361:0023000000000000
#011361:00130000
#011321:0000002300000000
#0113b0:00130000
#011370:0000002300000000
#011320:00001323
#011360:0000000000530000
#0123b0:13230000
#012370:0053000000000000
#012361:00132300
#012321:0000005300000000
#0123b0:0013
#012370:0000000000230000
#012370:00000000000000000000001300000000
#0123b0:0000000000000023
#012320:00000000000000000000000000000013
#013350:0023000000000000
#013380:00000013000000000000000000000000
#0133b0:0000002300000000
#013320:00000000000000130000000023000000
#013360:0000000000000000000000000000000000000053000000000000000000000000
#014370:13
#0143b0:00230000
#014321:00130000
#014361:0023
#014371:00000000000000000000001300002300
#015321:00000000001300000000230000000000
#015370:0000001300000000
#0153b0:0000000000230000
#016320:13230000
#016360:0053000000000000
#016371:00132300
#0163b1:0000005300000000
#016320:0013
#016360:0000000000230000
#016360:00000000000000000000001300000000
#016320:0000000000000023
#017380:1323000000000000
#017320:00000013000000000000000000000000
#017350:0000002300000000
#0173b0:00000000000000130000000023000000
#017370:0000000000000000000000000000000000000053000000000000000000000000
#018360:13
#018320:00230000
#0183b1:00130000
#018371:0023
#018361:00000000000000000000001300002300
#0193b1:00000000001300000000230000000000
#019360:0000001300000000
#019320:0000000000230000
#020320:13000033000000000000230000000000
#020360:00000000000033330000000000000000
#020371:00000013000000000000230000000000
#0203b1:00000000000033330000000000000000
#0203b1:00000000000000000000000000130000
#020371:00000000000000000000000000000033
#021371:23
#021320:13000000003333000000000023000000
#021360:00003333000000000053000000000000
#021371:0000001300002300
#0213b1:00000000000000000053000000000000
#0223b1:13000033000000000000230000000000
#022371:00000000000033330000000000000000
#022360:00000013000000000000000000000000
#022320:0000002300000000
#022320:00000000000000130000000000002300
#022360:00000000000000000000333300000000
#0223b1:00000000000000000000001300000000
#022371:0000000000000023
#023381:13000000000033330000000023000000
#0233b1:00003333000000000053000000000000
#023350:13000000000033330000000023000000
#023320:00003333000000000053000000000000
#0243b0:13000033000000000000230000000000
#024370:00000000000033330000000000000000
#024361:00000013000000000000230000000000
#024321:00000000000033330000000000000000
#0253b1:13000000003333000000000023000000
#025371:00003333000000000053000000000000
#025360:0000001300002300
#025320:00000000000000000053000000000000
#026320:16005323
#026371:00001323
#027321:0013000000330000
#027351:00000000000033000000000000530000
#028321:23
#0273b0:0013000000330000
#027380:00000000000033000000000000530000
#0283b0:23
#028350:0000000013330000
#028320:0000000000000023
#028381:0000000000130000
#0283b1:0000000000000023
#029361:00001323
#029321:0000000000530000
#029321:0000000000000013
#030361:53
#030321:0023000000000000
#029370:0000000000000013
#0303b0:53
#030370:0023000000000000
#0303b0:0013
#030380:0000000000230000
#030351:0000000000130023
#030321:00000053
#030380:0000000000000013
#0313b0:53
#031380:0023000000000000
#031320:00130000
#031350:0000002300000000
#0313b0:0013
#031380:0000000000230000
#0313b0:0000000000000013
#032370:0023000000000000
#031361:0000000000000013
#032321:0023000000000000
#032351:0013
#032321:0000000000000023
#032380:0000000000130000
#0323b0:0000000000000023
#033370:0000000000130033
#0333b0:00000053
#0343b0:53
#034370:0023000000000000
#033321:0000000000000013
#034361:53530000
#034321:0033002300000000
#034370:0000001300000023
#0343b0:0000000000530000
#034321:0000000000000013
#035361:00000053000000000000000000000000
#035321:0023
#035361:00000013
#035321:0000000000000053
#036361:00000053000000000000000023000000
#036341:0000003300000000
#036321:00000000000000000053000000000000
#035370:0000000000000013
#0363b0:00000053000000000000000023000000
#036390:0000003300000000
#036370:00000000000000000053000000000000
#0373b0:13230000
#037370:0053000000000000
#037361:0000132300000000
#037361:00000000000000130000000000000000
#037321:00000023
#038321:0000001300002300
#038351:00000000000000000053000000000000
#039321:13230000
#039361:0053000000000000
#039370:0000132300000000
#039370:00000000000000130000000000000000
#0393b0:00000023
#039350:0000000000000013
#040350:23
#040380:0013230000000000
#040350:0000001333000000
#040320:00000000000000000033000023000000
#040340:0000000000330000
#040360:00000000000000000000003300000000
#041360:00135300
#041320:0000003300230000
#041371:0000001300330000
#0413b1:00005323
#041320:00000013
#041360:0000000000000033
#042320:53
#042360:0023000000000000
#0413b1:0000000000000013
#042371:53230000
#0423b1:0033000000000000
#042320:00135300
#042360:0000003300230000
#0423b1:0000001300230000
#042371:0053
#042321:0000000000000013
#043351:00530000000000000000000000000000
#043321:00230000
#0423b0:0000000000000013
#043380:00530000000000000000000000000000
#0433b0:00230000
#044360:13
#044320:00230000
#0443b1:13
#044371:00230000
#044371:0000001300000053
#0443b1:0000000000530000
#044391:00000053
#045381:53535300
#045391:0053000000230000
#045371:0000005300000000
#044320:0000001300000053
#044360:0000000000530000
#044340:00000053
#045340:5300005300000000
#045360:0053000000230000
#045350:00535300
#0453b0:0000000000001333
#046370:0023000000000000
#045361:0000000000000013
#046321:0023000000000000
#046361:0000133300000000
#046321:0000000000230000
#0463b0:0000001300000000
#046370:0000000000230000
#047360:13
#047320:0023000000000000
#047370:00130000
#0473b0:0000002300000000
#047360:0013
#047320:0000000000230000
#048380:1300002300000000
#0483b0:00000053000000000000000000000000
#048351:0000001300002300
#048321:00000000000000000053000000000000
#0483b1:0000000000000013
#049371:00530000000000000000000000000000
#0493b1:00230000
#049321:0000001300002300
#049361:00000000000000000053000000000000
#0493b1:0000000000000013
#050371:00530000000000000000000000000000
#0503b1:00230000
#050321:0000000000000014
#053321:22
#0533c1:0000000000000012
#0553c1:00220000
