This file was generated by Ched 2.7.0.0.
#TITLE " "
#ARTIST ""
#DESIGNER ""
#DIFFICULTY 0
#PLAYLEVEL
#SONGID ""
#WAVE ""
#WAVEOFFSET 0
#JACKET ""
#REQUEST "ticks_per_beat 480"
#00002: 4
#BPM01: 85
#00008: 01
#TIL00: ""
#VOLUME: ""
#HISPEED 00
#MEASUREHS 00
#0221f:11
#02218:13000000000033130000000000000000
#0221b:00000013000000000000331300000000
#02215:0013000000000000
#02018:13001300000000000000001300001300
#02015:00000013000000000000000000000013
#02012:00000000000033130000000000130000
#02010:41
#02415:13001300000000000000001300001300
#02418:00000013000000000000000000000013
#0241b:00000000000033130000000000130000
#00315:0012000000000000
#00319:12
#0031b:0000000012000032
#00316:0000001200000000
#0031a:00120000
#03415:0000000000130000
#0341b:0000001300000013
#03412:00000033
#03317:0013001300000013
#03312:2300230023000013
#0321b:0000000000130000
#03215:0013
#04412:0000001300000000
#04417:2300001300000000
#0401b:0000001300000000
#04016:0000001300000000
#04012:00001300000000000000333300001300
#04017:00001300000000000000333300000000
#04014:13000000130000000013000000000000
#04019:13000000130000000013000000000000
#0391b:0000000000000013
#03916:0014000000000013
#03912:24000000000000140000000000000000
#03917:0000001414000000
#03910:41
#02717:00000000000000000000000000140000
#02718:0000001300000000
#0271b:0013000000000000
#0271a:0000000000140000
#02715:13
#04612:0000001300000000
#04618:0000001300001300
#04615:0000000000000013
#0451b:13000013
#04515:0000000000000013
#04516:13
#01012:0000001300000000
#01018:0000001300001300
#01015:0000000000000013
#0091b:00130013
#00915:0000001300000013
#0061b:0000001300000000
#00615:0000001300001300
#00618:0000000000000013
#00512:00130013
#00518:0000001300000013
#00213:0012
#00216:00000012
#0021b:12
#00218:00120000
#00215:0000000000320032
#00219:0032003200000000
#00116:0012
#00113:00000012
#0011b:12
#00118:00120000
#00114:0000000000320032
#00119:0032003200000000
#00018:12
#0001b:00120000
#00013:0012
#00016:00000012
#0001a:0032003200000000
#00015:0000000000320032
#0531a:00000012
#05318:12121200
#05312:0034003400340000
#0521a:00000012
#05218:12121200
#05212:0034003400340034
#0511a:00000012
#05118:00121200
#05112:0034003400340034
#0481b:0000001300000000
#04816:0014000000000000
#04815:0000000000130013
#04818:0013
#0481a:24000024
#04812:00240000
#04716:0000000000000014
#04712:00000014
#04710:41
#04314:0000000000000013
#04316:00000013
#0431b:00000023
#04318:0000000000230000
#04315:0023
#04312:0000002300000000
#04319:0000000000000023
#04216:0000131300000000
#0421b:0000130000001313
#04212:0000000000001323
#04117:0000000000001313
#04116:0000131300000000
#04112:00000013
#04118:0013000000000000
#0411b:00130000
#04115:13
#03716:0014000000000014
#0371a:24000000000000140000000000000000
#03715:0000001414000000
#03812:0000000000000014
#0381a:0000001400000000
#03816:00000000000000000014000000000000
#03818:0014000000000000
#03815:00140000
#03813:14
#0361a:0000000000000014
#03616:0013
#03614:00000000001333000000000000000000
#03612:0013000000000000
#03515:0000000000000013
#03517:00000013000000000000000000000000
#0351b:00000013
#03112:0000000000000013
#03118:0000001300000013
#0311b:0013
#03115:00131300
#03018:0000000013000013
#03012:0000000000130000
#02916:0013001300000013
#0291b:2300230023000013
#0291f:21
#02910:0041
#02518:0000000000000013
#02516:00000000000000000013000000000000
#02512:0000001300000000
#0231b:00130000
#02315:00000013000013330000000000000000
#02318:00001300000000000000000000000013
#02312:13
#02117:00000000000000000013000000000000
#0211b:0000001300000000
#02112:00000000000000000000000000000013
#01718:13000000000000000000000000000013
#01712:00001333000000000000000000000000
#01715:00000000000033130000000000000000
#01615:00000000130000000000001300000013
#0161b:0000000000000013
#01618:0000000000130000
#01612:13
#01915:00000000001300000000000000000013
#0191b:1300001300000000
#01918:00000013000000000000000000000000
#01912:0013000000000000
#0181b:00130000
#01815:00000000000000000000130000000013
#01818:33
#01518:00000000001300000000000000001300
#01512:1300001300000000
#01515:00000013000000000000000000000000
#0151b:0013000000000000
#01218:00000000130000000000001300000013
#01212:0000000000000013
#01215:0000000000130000
#0121b:13
#0131b:00003313000000000000000000000000
#01318:00000000000033130000000000000000
#01310:41
#01116:0000000000000014
#01112:00000014
#00815:0000001300001300
#0081b:0000130000000013
#00812:24
#00716:0000000000000014
#0071a:00000014
#00418:0000001300001300
#00412:0000130000000013
#0041a:24
#00410:41
#04912:0000240000130013
#04918:1300001300000000
#04915:0013
#0491b:0013000000000000
#0491a:00000024
#05018:0013000013000000
#05015:1300000000130000
#0501b:0000001300000000
#05012:00240014
#0501a:0000000000002424
#02618:0013000000000013
#02612:0000001300000000
#02615:00130000
#0261b:13
#01412:00130000
#01415:13
#01418:00000000000000000000130000000013
#02812:26
#02818:26
#04052:0023000000001300
#04057:0023000000001300
#0405b:0000002300000000
#04056:0000002300000000
#04054:63000000630000000063000000000000
#04059:63000000630000000063000000000000
#0395a:00000014
#03952:64
#0395b:0000000000000023
#03956:0024000000000023
#03957:0064
#0385a:0000006400004400
#03856:00000000000000000024000000000000
#03255:0013000000000000
#0325b:0013000000630000
#03052:0000130000630000
#03057:00130000
#03058:0000000000000063
#0215b:0000006300004300
#02157:00000000000000000023000000000000
#02552:0000005300003300
#02556:00000000000000000023000000000000
#02352:00000013
#02355:0000006300000000
#01752:0053000000001300
#01755:00000000000000530000000000000000
#01758:00000000000000000000000000000053
#03752:00000014
#0375a:54
#03756:0024000000000000
#03755:0054
#0135b:00000063000000000000000013000000
#01358:00000000000000630000000000000000
#03352:1300130013000063
#03357:0000000000000063
#0485a:14
#02852:36
#02858:46
#04252:0000000000000063
#04256:0000006300000000
#0425b:0000000000000053
#00852:14
#0085b:0000000000000063
#00855:0000006300000000
#0295b:1300130013000053
#02956:0000000000000053
#0045a:14
#00452:0000000000000053
#00458:0000005300000000
#03455:0000000000630000
#0345b:0000005300000053
#04452:0000005300000000
#04457:0000005300000000
#02757:00000000000000000000000000240000
#02758:0000005300000000
#0275b:0053000000000000
#0275a:0000000000540000
#04652:0000005300000000
#04658:0000005300000000
#0455b:23000063
#04555:0000000000000063
#04556:23
#01052:0000005300000000
#01058:0000005300000000
#0095b:00000063
#00955:0000006300000063
#0065b:0000006300000000
#00655:0000006300000000
#00552:00000053
#00558:0000005300000053
#00253:0052
#00256:00000052
#0025b:62
#00258:00620000
#00156:0062
#00153:00000022
#0015b:62
#00158:00220000
#00058:52
#0005b:00220000
#00053:0052
#00056:00000022
#04157:0000000000000053
#04156:0000006300000000
#03656:0023
#03654:00000000005300000000000000000000
#03652:0023000000000000
#03555:0000000000000053
#03557:00000023000000000000000000000000
#03152:0000000000000053
#03158:0000000000000053
#0315b:0063
#03155:0063
#0245b:00000000000000630000000000000000
#02458:00000063000000000000000000000000
#02052:00000000000000530000000000000000
#02055:00000053000000000000000000000000
#02258:00000000000000630000000000000000
#0225b:00000053000000000000006300000000
#0195b:0000005300000000
#0185b:00530000
#01655:00530000
#01652:53
#01258:00000000630000000000000000000063
#0125b:63
#0035b:0022
#01552:0000006300000000
#01452:00630000
#01455:63
#000380:1222
#0003a0:0032003200000000
#0003b0:00320000
#000331:0012
#000351:0000000000320032
#000361:00000032
#001331:22
#0013b0:1222
#001390:0032003200000000
#001380:00320000
#001361:0012
#001341:0000000000320032
#001331:00000032
#002361:22
#0023b0:1222
#002390:0032003200000000
#002380:00320000
#002331:0012
#002351:0000000000320032
#002361:00000032
#003331:22
#0033b1:0000000012000032
#0043a1:24
#004381:0000001300000000
#0043b1:0000000000230000
#004321:0000000000000013
#005351:0023000000000000
#005381:0000001300000000
#0053b1:0000000000230000
#005321:00000013
#006351:00230000
#005380:0000000000000013
#0063b0:00230000
#0063b0:0000001300000000
#006380:0000000000230000
#006351:0000001300000000
#006321:0000000000230000
#0073b1:1323000000000000
#007350:1323000000000000
#007320:0000132300000000
#007381:0000132300000000
#0073b1:0000000013230000
#007350:0000000013230000
#008350:0000001300000000
#008320:0000000000230000
#0083b0:0000000000000013
#009380:0023000000000000
#009350:0000001300000000
#009320:0000000000230000
#0093b0:00000013
#010380:00230000
#009351:0000000000000013
#010321:00230000
#010321:0000001300000000
#010351:0000000000230000
#010380:0000001300000000
#0103b0:0000000000230000
#011320:1323000000000000
#011381:1323000000000000
#0113b1:0000132300000000
#011350:0000132300000000
#011320:0000000013230000
#011381:0000000013230000
#0123b1:1323
#012381:00330000
#012381:00000000000000000000000000000013
#0133b1:00003333000000000000000023000000
#013381:00000000000033330000000000000000
#013351:0000000000000013
#014351:3323
#014321:00330000
#014351:00000000000000000000001300002300
#015321:0000001300000000
#015351:00000023
#016321:1323
#016351:00330000
#017321:00001333000000000000000023000000
#017351:00000000000033330000000000000000
#017381:00000000000000000000000000000013
#018381:3323
#0183b1:00330000
#018381:00000000000000000000001300002300
#0193b1:0000001300000000
#019381:00000023
#020351:00000013000000000000230000000000
#020321:00000000000033330000000000000000
#0213b1:13000000003333000000000023000000
#021381:00003333000000000000000000000000
#021371:00000000000000000053000000000000
#0223b1:00000013000000000000333300000000
#022381:00000000000033330000000000002300
#023351:00000000000013330000000000000000
#023321:00000023
#024381:00000013000000000000230000000000
#0243b1:00000000000033330000000000000000
#025321:13000000003333000000000023000000
#025351:00003333000000000000000000000000
#025361:00000000000000000053000000000000
#026321:00001323
#0273b1:0013000000000000
#027381:0000003300000000
#0273a1:0000000000340000
#027371:00000000000000000000000000540000
#028381:26
#029361:0000000000130033
#030321:0033230000000000
#0293b0:0000000000001333
#030370:0033230000000000
#030320:0000000000130000
#030350:0000000000000023
#030381:0000000000000013
#0313b1:0023000000000000
#0313b1:0013
#031381:00000023
#031350:0013
#031320:00000023
#031320:0000000000000013
#032350:0023000000000000
#031381:0000000000000013
#0323b1:0023000000000000
#0323b1:0000000000130000
#032371:0000000000000023
#033371:0000000000130033
#0343b1:0023000000000000
#033320:0000000000000013
#034360:0023000000000000
#0343b0:0000001300000000
#034380:0000000000230000
#034351:0000000000130000
#034321:0000000000003323
#0343b0:0000000000000013
#035370:00000053000000000000000000000000
#0353b0:0023
#035350:0000000000000013
#036320:0053000000002300
#036340:00000000005333000000000000000000
#036360:0053
#0373a0:14240000
#037360:0054000000000000
#037350:0014
#037320:00000024
#0383a0:0000001400002400
#038360:00000000000000000054000000000000
#039320:14240000
#039360:0054000000000000
#039370:0014
#0393a0:00000024
#039360:0000000000000013
#040340:53000000530000000053000000000000
#040320:00003300000000000000333323000000
#040360:0000003300000000
#0393b1:0000000000000013
#040391:53000000530000000053000000000000
#040371:00003300000000000000333323000000
#0403b1:0000003300000000
#041361:0000001300000000
#041321:0000000000230000
#0413b0:0000001300230000
#041370:0000000000000013
#0423b0:0023000000000000
#041321:0000000000000013
#042321:0023000000000000
#042361:0000001300000000
#042321:0000000000230000
#0423b0:0000001300230000
#0423b0:0000000000000013
#043380:00230000
#042321:0000000000000013
#043351:00230000
#044371:1300003300000000
#0453b1:53
#045371:0000000000230000
#044320:1300003300000000
#045360:53
#045320:0000000000230000
#0453b0:00000013
#046380:00230000
#045351:0000000000000013
#046321:00230000
#046321:0000001300000000
#046351:0000000000230000
#046380:0000001300000000
#0463b0:0000000000230000
#047320:1323000000000000
#047381:1323000000000000
#0473b1:0000132300000000
#047350:0000132300000000
#047320:0000000013230000
#047381:0000000013230000
#050321:0000000000000014
#051321:0034003400340034
#052321:0034003400340034
#053321:0034003400340022
#0533a0:0000000000000012
#0553c0:00220000
