This file was generated by Ched 2.7.0.0.
#TITLE ""
#ARTIST ""
#DESIGNER ""
#DIFFICULTY 0
#PLAYLEVEL
#SONGID ""
#WAVE ""
#WAVEOFFSET 0
#JACKET ""
#REQUEST "ticks_per_beat 480"
#00002: 4
#BPM01: 85.0
#00008: 01
#TIL00: ""
#VOLUME: ""
#HISPEED 00
#MEASUREHS 00
#0001a:0012000000000000
#00014:0000000000120000
#00018:1212
#00012:1212
#00412:1300001300130000
#00416:0013000013000013
#0041b:2313000013001313
#00417:0000001300000000
#00410:41
#0071b:0000001313001300
#00718:00000000000000000013001300130013
#00715:0000000000000000000000000000000000000000130000130000000013000000
#00712:0013000000001300
#00716:1313
#00717:00130000
#00714:00000000000000130000000000000000
#00719:00000013000000000000000000000000
#00619:00000013
#00616:0000000013000013
#0061b:0013000013000013
#00614:00000013
#00617:1300131300000000
#00612:1300000000130000
#00516:0000000013001313
#00512:1300131300130000
#00517:1300001300000000
#0051b:0013000013000000
#0131a:00000012
#01316:0012120000120012
#01312:1200001212000000
#01314:00000012
#01319:00000000000000000000000000000012
#01317:00000000000000120000000000000000
#0131c:00000012000000000000000000000000
#01310:41
#02018:00001200000000120000000000120012
#0201c:12000000000000000000001200000000
#02016:0000000012120012
#02012:0000241200002400
#02010:41
#01412:00001200000012000000120000000012
#01417:1212121200000000
#0141c:1212
#01414:00000012
#01512:12000000001212000000000012000000
#01517:1200001212001200
#0151c:0012000012000012
#01515:00000012000000000000000000000000
#01519:00120000
#0271c:0000001200000000
#02717:0000120012120000
#02712:1212000012000000
#02718:0000000000001212
#02716:00000000000000000000000000120012
#01217:12001200120012000000001200001212
#0121c:0012001200121200
#01212:1212
#02917:13000013130000131300000000001300
#0291b:2313231323130000
#02912:00130000001300000013000000001300
#02919:00000000000000000000000000000013
#02915:00000013
#02914:00000000000000000000000000000013
#0291f:21
#02910:0041
#03012:00131313
#03017:00131300
#0301b:13000000000013000000130000000013
#03019:00130000000000000013000000000000
#03016:1300001300001313
#03014:00130000000000130000000000000000
#03212:00000000130000130013000000001300
#0321b:00000000130000130013001300000013
#03216:00000000000013000000130000000013
#03218:0000000000000000000000000000000000000000000000130000130000000000
#03215:00000013
#03217:0000000013000013
#03219:14
#03213:14
#0371a:14000000000000000000000000000013
#0371b:0000001300130000
#03712:24001300001300001300000013001300
#03716:0013130000130013
#03717:0013
#03714:00000000000000130000000000000000
#03817:13
#03812:13000013000000001300130013000000
#03816:00000000130000000014000000001414
#0381b:00130000130013000000000000000000
#03815:00001300000000130000000000000000
#03813:00000000001300000000000000000000
#00116:1212
#00114:0000000000120000
#0011c:1212
#0011a:0012000000000000
#02818:2600000000120000
#02816:0000000000120000
#02812:26
#0331b:00130000001300000013000000001300
#03317:00000014
#03316:13000013130000131300000000000000
#03312:2313231323230000
#04316:000000000000000000000000000000000000000000000000000000000000000000000000000000000000000000000000000000000000000000000014140000000000000000000000000000000000000000000000000000000000000000000000000000000000000000000000000000000000000000000000000000000000000000000000000000000000000000000000000000000000000000000000000000000000000000000000000000000000000000000014140000000000000000000000000000000000000000000000000000000000000000000000000000000000000000000000000000000000000000000000000000000000000000000000000000000000000000000000000000000000000000000000000000000000000000000000000000000000000000000014140000000000000000000000000000000000000000000000000000000000000000000000000000000000000000000000000000000000000000000000000000000000000000000000000000000000000000000000000000000000000000000000000000000000000000000000000000000000000000000014140000000000000000000000000000000000000000000000000000000000000000000000000000000000000000000000000000000000000000000000000000000000000000000000000000000000000000000000000000000000000000000000000000000000000000000000000000000000000000000000000000000000000000000000000000000000000000000000000000000000000000000000000000000000000000000000000000000000000000000000000000000000000000000000000000000000000000000000000000000000000000000000000000000000000000000000000000000000000000000000000000000000000000000000000000000000000000000000000000000000000000000000000000000000000000000000000000000000000000000000140000000000000000000000000000000000000000000000000000000000000000000000000000000000000000000000000000000000000000000000000000000000000000000000000000000000000000000000000000000000000000000000000000000000000000000000000000000000000000000000000000000000000000000000000000000000000000000000000000000000000000000000000000000000000000000000000000000000000000000000000000000000000000000000000000000000000000000000000000000000000000000000000000000000000000000000000000000000000000000000140000000000000000000000000000000000000000000000000000000000000000000000000000000000000000000000000000000000000000000000000000000000000000000000000000000000000000000000000000000000000000000000000000000000000000000000000000000000000000000000000000000000000000000000000000000000000000000000000000000000000000000000000000000000000000000000000000000000000000000000000000000000000000000000000000000000000000000000000000000000000000000000000000000000000000000000000000000000000000000000140000000000000000000000000000000000000000000000000000000000000000000000000000000000000000000000000000000000000000000000000000000000000000000000000000000000000000000000000000000000000000000000000000000000000000000000000000000000000000000000000000000000000000000000000000000000000000000000000000000000000000000000000000000000000000000000000000000000000000000000000000000000000000000000000000000000000000000000000000000000000000000000000000000000000000000000000000000000000000000000140000000000000000000000000000000000000000000000000000000000000000000000000000000000000000000000000000000000000000000000000000000000000000000000000000000000000000000000000000000000000000000000000000000000000000000000000000000000000000000000000000000000000000000000000000000000000000000000000000000000000000000000000000000000000000000000000000000000000000000000000000000000000000000000000000000000000000000000000000000000000000000000000000000000000000000000000000000000000000000000140000000000000000000000000000000000000000000000000000000000000000000000000000000000000000000000000000000000000000000000000000000000000000000000000000000000000000000000000000000000000000000000000000000000000000000000000000000000000000000000000000000000000000000000000000000000000000000000000000000000000000000000000000000000000000000000000000000000000000000000000000000000000000000000000000000000000000000000000000000000000000000000000000000000000000000000000000000000000000000000
#04314:14141414000000000000000000000000
#04318:14141414000000000000000000000000
#04312:0000002400240024
#0431a:00002424
#03112:00130000000013000013000000001300
#0311b:13001300001300000000130000001300
#03117:00000000130000130000000013000000
#03116:13000013000000001300001300000000
#03114:0013000000130000
#03119:0000001300000000
#00315:1212
#00317:0012001200000000
#00319:00120000
#00316:00000000000000000000001400140014
#0031a:0000000000000000000000000000000000000000000000140000000000000000
#00312:00000014
#0181c:12000000000000000000121200000000
#01817:1212121200000000
#01816:0000000000000000000000000000000000000000000000003212000000001200
#01818:0000000000000000000000000000000000000000000000003212000000000000
#01812:00000000000000000000001200000000
#02118:00001200001200001200120000000012
#02116:1200001200000012
#02112:00000012000000001200000012000000
#0211c:12
#0211a:00000000240000240000000024000000
#03414:0000000000000013
#0341b:0000001300001313
#03416:00000013
#03415:14
#03412:0013001300000000
#03417:00140000
#03512:1300000013000013
#03516:00130013
#03514:0013001300130000
#03517:13
#03519:0013001300000000
#0351b:00130013
#04014:00000000000000000000000000000014
#04016:0013000000000014
#0401b:1300001300130000
#04012:0013130000262300
#04018:00000000000000132600001300140000
#04017:0000001300000000
#04015:0000000000000000000000000000000000001300000000130000000000000000
#0401a:00000024
#04516:00000000001400000000000000000000000000000000000014000000000000000000000000000000130000000000000000000000000000000000000000000000
#0451b:0000000000130013
#04512:00000013
#04517:0014000000001300
#04514:14000000000000140000000000000000
#04515:0000000000000000000000000000000000000000000000001400000000000000000000000000000000140000000000000000000000000000000000000000000000000000000000000000000000000000000000000000000000000000000000000000000000000000000000000000000000000000000000000000000000000000
#04513:00140000
#04812:13000000130000171300130000001300
#04817:00000000000000000000000000001317
#04816:0000001300000000
#0481b:0013001313001300
#0481a:24
#05012:13001300130000131600130014002400
#0501a:0000000000001414
#05016:00001300000014000000000000140000
#0501b:13000000000000130000130000000000
#05018:00000000000000000016000000000000
#05117:0012001200000000
#05112:00120000
#01917:00000000000000000000000000120000
#01918:00001212000000001200001200000012
#01916:1200000000000000000012001200000000000000120000120000000000000012
#0191a:00000000000000240012000024002400
#01912:0000240000002424
#04117:0000001300000000
#04112:2413001300130013
#0411b:13131313
#04116:00130000
#0361b:13000000001300130000000000000000
#03615:0000000000000000000000000000000000000000000000130000000000000000
#03618:00002600000000000000001313000000
#03616:13000000130000000014000000001414
#03617:0000001300000000
#03612:00000000001300130000240000240000
#0361a:00000000000000000000140000140000
#0491b:1300001313131300
#04916:0013001300000000
#04912:13001300130000171300000000001300
#04917:00000000000000000000130000001317
#00218:0012000000000000
#0021c:1212
#00212:1212
#00216:0000000000120000
#0081b:1300001300131300
#00816:0000001300001300
#00817:0000130013000013
#00812:2313130000130013
#01014:00000013
#01017:0013000000000013
#01019:00000013
#01012:1313001300000013
#0101b:0000130013130000
#01016:0000130000130000
#01118:0000000000000000000000000000000000000000130000130000130000000000
#01115:00000000000000000013001300001300
#01117:1313
#01116:00130000
#01112:00000000000013001300000013000013
#0111b:0013000000001300
#01119:00000000000000130000000000000000
#01114:00000013000000000000000000000000
#00912:0013130000131300
#0091b:0013001300130013
#00916:1300001300000000
#00917:00131313
#01714:00000012
#01717:12000000000000120000000000000000
#01718:0012120000120012
#0171c:1200001212000000
#0171a:00000012
#01712:00000012000000000000000000000000
#01715:00000000000000000000000000000012
#01617:00001200120012000000001200001200
#01612:0012001200121200
#0161c:1212
#01619:00000000000000000000000000000012
#02218:0012001200120012
#02216:00000000000000120000001200000000
#02212:00000012000000000000000000000000
#0221c:1212
#0221f:11
#0221a:00240024
#02318:1200000000120000
#0231c:00000012000000121200000000000000
#02316:00001212000012001200120000001200
#02312:12000000240000000000000024000024
#0231a:00000000000000000000000000000012
#0251c:00000012000000001200000012000000
#0251c:00000012
#02518:1200001200000012
#02516:00001200001200001200120000001200
#02512:12000000240000240000000024000000
#02512:00000024
#02614:18
#02616:00000000000000000000000000000014
#02612:00000000000000000000130000130000
#02618:00000000000000000000001313000000
#02615:0000000000000000000000000000000000000000000000130000000000000000
#0261b:00000000000000000000000000130000
#03912:1400001300130013
#03917:0013130000130013
#0391b:00001300001300001300000013000000
#03916:0013
#03919:00000000000000130000000000000000
#0391a:24
#03910:41
#04216:130000000000000000000000000000000000000000000000000000000000000000000000000000000000000000000000000000000000000000000000000000000000000000000000000000000000000000000000000000000000000000000000000000000000000000000000000000000000000000000000000000000000000000000000000000000000000000000000000000000000000000000000000000000000000000000000000000000000000000000000000000000000000000000000000000000000000000000000000000000000000000000000000000000000000000000000000000000000000000000000000000000000000000000000000000000000000000000000000000000000000000000000000000000000000000000000000000000000000000000000000000000000000000000000000000000000000000000000000000000000000000000000000000000000000000000000000000000000000000000000000000000000000000000000000000000000000000000000000000000000000000000000000000000000000000000000000000000000000000000000000000000000000000000000000000000000000000000000000000000000000000000000000000000000000000000000000000000000000000000000130000000000000000000000000000000000000000000000000000000000000000000000000000000000000000000000000000000000000000000000000000000000000000000000000000000000000000000000000000000000000000000000000000000000000000000000000000000000000000000000000000000000000000000000000000000000000000000000000000000000000000000000000000000000000000000000000000000000000000000000000000000000000000000000000000000000000000000000000000000000000000000000000000000000000000000000000000000000000000000000000000000000000000000000000000000000000000000000000000000000000000000000000000000000000000000000000000000000000000000000000000000000000000000000000000000000000000000000000000000000000000000000000000000000000000000000000000000000000000000000000000000000000000000000000000000000000000000000000000000000000000000000000000000000000000000000000000000000000000000000000000000000000000000000000000000000000000000000000000000000000000000000000000000000000000000000000000000000000000000000000000000000000000000000000000000000000000000000000000000000000000000000000000000000000000000000000000000000000000000000000000000000000000000000000000000000000000000000000000000000000000000000000000000000000000000000000000000000000000000000000000000000000000000000000000000000000000000000000000000000000000000000000000000000000000000000000000000000000000000000000000000000000000000000000000000000000000000000000000000000000000000000000000000000000000000000000000000000000000000000140000000000000000000000000000000000000000000000000000000000000000000000000000000000000000000000000000000000000000000000000000000000000000000000000000000000000000000000000000000000000000000000000000000000000000000000000000000000000000000000000000000000000000000000000000000000000000000000000000000000000000000000000000000000000000000000000000000000000000000000000000000000000000000000000000000000000000000000000000000000000000000000000000000000000000000000000000000000000000000000000000000000000000000000000000000000000000000000000000000000000000000000000000000000000000000000000000000000000000000000000000000000000000000000000000000000000000000000000000000000000000000000000000000000000000000000000000000000000000000000000000000000000000000000000000000000000000000000000000000000000000000000000000000000000000000000000000000000000000000000000000000000000000000000000000000000000000000000000000000000000000000000000000000000000000000000000000000000000000000000000000000000000000000000000000000000000000000000000000000000000000000000000000000000000000000000000000000000000000000000000000000000000000000000000000000000000000000000000000000000000000000000000000000000000000000000000000000000000000000000000000000000000000000000000000000000000000000000000000000000000000000000000000000000000000000000000000000000000000000014140000000000000000000000000000000000000000000000000000000000000000000000000000000000000000000000000000000000000000000000
#0421b:1300001300000013
#04217:0013000013000000
#04212:0000000013000023
#04214:00000000000000000000000013000014
#04219:00000013
#04218:00000000000000000000000000000014
#04614:00000013
#04617:0013000000000013
#04619:00000013
#04612:1313001300000013
#0461b:0000130013130000
#04616:0000130000130000
#0471b:0000001313001300
#04718:00000000000000000013001300130013
#04715:0000000000000000000000000000000000000000130000130000000013000000
#04712:0013000000001300
#04716:1313
#04717:00130000
#04714:00000000000000130000000000000000
#04719:00000013000000000000000000000000
#04710:41
#04417:00000000000000000000000000000000000000000000000000000000000000000000000000000000000000001400000000000000001400000000000000000000
#04416:0000001400000000001400000000000014000000000000000000000000001400
#0441a:2400001400000000
#04418:00000000000000000000000000000000000000000000000000000000140000000000000000140000000000000000000000000000000000001400000000000000
#04419:0000000000140000
#04415:00000014
#04412:00000014000000000000000000000000
#02416:00001200000000120000000000120012
#02412:12000000000000000000001200000000
#02418:0000000012120012
#0241c:0000001200000000
#0241a:00240024
#00556:0000000000000053
#00552:2300003300000000
#00557:0000006300000000
#0055b:0000000023000043
#02058:00000000000000620000000000000000
#0205c:12
#0275c:0000006200000000
#02757:0000220022620000
#02752:1252000000000000
#01257:00002200520000000000002200000052
#01252:5252
#0125c:0000002200000000
#02856:0000000000520000
#02858:4600000000520000
#02852:36
#03152:00230000330000000023000000006300
#0315b:43000000002300004300000000006300
#03157:00000000630000230000000023000000
#03156:53000023000000005300002300000000
#03154:0063000000630000
#03159:0000005300000000
#03856:00000000630000000024000000000000
#0385b:00230000430053000000000000000000
#03857:53
#03852:00000023000000000000000033000000
#03855:0063000000000000
#03853:00000000002300000000000000000000
#0045b:4300000023000043
#00452:6300003300000000
#00456:0023000000000053
#00457:0000006300000000
#0295b:4353435343530000
#02957:63000023630000236300000000002300
#02952:00230000002300000023000000002300
#02959:00000000000000000000000000000053
#02955:00000053
#02954:00000000000000000000000000000053
#03057:00430000
#03052:00336300
#0305b:2300000000630000
#03059:00630000000000000000000000000000
#03056:23000023
#03054:00630000000000000000000000000000
#03357:00000024
#03352:3363336333530000
#0335b:00230000002300000023000000005300
#03356:53000023530000235300000000000000
#03557:23
#0355b:00230053
#03559:0053005300000000
#03552:0000000000000063
#0345b:0000005300000053
#03455:24
#03452:0063006300000000
#03457:00240000
#0485a:44
#04852:2300130000530000
#0485b:0063000023001300
#03756:0023630000000053
#03752:34000000002300000000000033000000
#0375a:64000000000000000000000000000023
#03757:0053
#0375b:0000430000230000
#04252:0000000000000053
#04256:230000000000000000000000000000000000000000000000000000000000000000000000000000000000000000000000000000000000000000000000000000000000000000000000000000000000000000000000000000000000000000000000000000000000000000000000000000000000000000000000000000000000000000000000000000000000000000000000000000000000000000000000000000000000000000000000000000000000000000000000000000000000000000000000000000000000000000000000000000000000000000000000000000000000000000000000000000000000000000000000000000000000000000000000000000000000000000000000000000000000000000000000000000000000000000000000000000000000000000000000000000000000000000000000000000000000000000000000000000000000000000000000000000000000000000000000000000000000000000000000000000000000000000000000000000000000000000000000000000000000000000000000000000000000000000000000000000000000000000000000000000000000000000000000000000000000000000000000000000000000000000000000000000000000000000000000000000000000000000000000630000000000000000000000000000000000000000000000000000000000000000000000000000000000000000000000000000000000000000000000000000000000000000000000000000000000000000000000000000000000000000000000000000000000000000000000000000000000000000000000000000000000000000000000000000000000000000000000000000000000000000000000000000000000000000000000000000000000000000000000000000000000000000000000000000000000000000000000000000000000000000000000000000000000000000000000000000000000000000000000000000000000000000000000000000000000000000000000000000000000000000000000000000000000000000000000000000000000000000000000000000000000000000000000000000000000000000000000000000000000000000000000000000000000000000000000000000000000000000000000000000000000000000000000000000000000000000000000000000000000000000000000000000000000000000000000000000000000000000000000000000000000000000000000000000000000000000000000000000000000000000000000000000000000000000000000000000000000000000000000000000000000000000000000000000000000000000000000000000000000000000000000000000000000000000000000000000000000000000000000000000000000000000000000000000000000000000000000000000000000000000000000000000000000000000000000000000000000000000000000000000000000000000000000000000000000000000000000000000000000000000000000000000000000000000000000000000000000000000000000000000000000000000000000000000000000000000000000000000000000000000000000000000000000000000000000000000000000000000000000000000000000000000000000000000000000000000000000000000000000000000000000000000000000000000000000000000000000000000000000000000000000000000000000000000000000000000000000000000000000000000000000000000000000000000000000000000000000000000000000000000000000000000000000000000000000000000000000000000000000000000000000000000000000000000000000000000000000000000000000000000000000000000000000000000000000000000000000000000000000000000000000000000000000000000000000000000000000000000000000000000000000000000000000000000000000000000000000000000000000000000000000000000000000000000000000000000000000000000000000000000000000000000000000000000000000000000000000000000000000000000000000000000000000000000000000000000000000000000000000000000000000000000000000000000000000000000000000000000000000000000000000000000000000000000000000000000000000000000000000000000000000000000000000000000000000000000000000000000000000000000000000000000000000000000000000000000000000000000000000000000000000000000000000000000000000000000000000000000000000000000000000000000000000000000000000000000000000000000000000000000000000000000000000000000000000000000000000000000000000000000000000000000000000000000000000000000000000000000000000000000000000000000000000000000000000000000000000000000000000000000000000000000000000000000000000000000000000000000000054640000000000000000000000000000000000000000000000000000000000000000000000000000000000000000000000000000000000000000000000
#04257:0053000023000000
#0425b:0000005300000053
#04258:00000000000000000000000000000024
#04254:00000000000000000000000000000024
#05052:0000130000000034
#0505a:0000000000000054
#0505b:23
#05056:0063000000000000
#00052:62
#00058:0062
#0015c:0062
#00156:62
#0135c:00000062000000000000000000000000
#0135a:00000012
#01354:00000012
#01357:00000000000000220000000000000000
#01557:0000006222001200
#01552:5200006200001200
#0155c:0022
#04152:3453005300530063
#04157:0000006300000000
#0415b:53532363
#04156:00530000
#0495b:23000013
#04956:0063000000000000
#04952:00132300
#04957:0000000000530000
#00252:62
#0025c:0052
#00756:1313
#00757:00130000
#0085b:6300004300002300
#00856:0000005300000000
#00852:3300230000000033
#00857:0000000000000063
#01157:1313
#01156:00130000
#00952:00230053
#0095b:0000004300000023
#00956:0000005300000033
#01457:0022620000000000
#0145c:6262
#01452:0000002200000000
#01754:00000012
#01757:62000000000000220000000000000000
#0175a:00000012
#01752:00000052000000000000000000000000
#01657:00002200620000000000002200000000
#0165c:6262
#01652:0000002200000000
#01857:62520000
#0185c:00000000000000000000005200000000
#01858:0000000000000000000000000000000000000000000000000022000000000000
#01852:00000000000000000000006200000000
#01856:0000000000000000000000000000000000000000000000000022000000000000
#02256:00000000000000000000006200000000
#02252:00000062000000000000000000000000
#02156:6200006200000000
#02152:00000022000000002200000032000000
#02358:5200000000220000
#0235c:00000022000000005200000042000000
#0255c:00000022000000002200000042000000
#0255c:00000042
#02558:5200005200000000
#02556:0000000000000052
#02652:12
#02654:58
#01956:6200006200000000
#01958:00000052000000000000000000000000
#00652:2300003300000000
#00657:0000006300000000
#0065b:0023
#03259:24
#03253:24
#03252:0033000000000000
#0325b:0043000000000000
#03658:0016000000000000
#03656:23
#03652:00000000000000130000000000000000
#0365b:00000000000000130000000000000000
#03952:5400330000230053
#03957:0023530000000000
#03956:0063
#0395b:00000000002300000000000043000000
#0395a:44
#04052:00330000
#04056:0053000000000000
#04057:0000006300000000
#04356:000000000000000000000000000000000000000000000000000000000000000000000000000000000000000000000000000000000000000000000054640000000000000000000000000000000000000000000000000000000000000000000000000000000000000000000000000000000000000000000000000000000000000000000000000000000000000000000000000000000000000000000000000000000000000000000000000000000000000000000054640000000000000000000000000000000000000000000000000000000000000000000000000000000000000000000000000000000000000000000000000000000000000000000000000000000000000000000000000000000000000000000000000000000000000000000000000000000000000000000054640000000000000000000000000000000000000000000000000000000000000000000000000000000000000000000000000000000000000000000000000000000000000000000000000000000000000000000000000000000000000000000000000000000000000000000000000000000000000000000054640000000000000000000000000000000000000000000000000000000000000000000000000000000000000000000000000000000000000000000000000000000000000000000000000000000000000000000000000000000000000000000000000000000000000000000000000000000000000000000000000000000000000000000000000000000000000000000000000000000000000000000000000000000000000000000000000000000000000000000000000000000000000000000000000000000000000000000000000000000000000000000000000000000000000000000000000000000000000000000000000000000000000000000000000000000000000000000000000000000000000000000000000000000000000000000000000000000000000000000000000000000000000000000000000000000000000000000000000000000000000000000000000000000000000000000000000000000000000000000000000000000000000000000000000000000000000000000000000000000000000000000000000000000000000000000000000000000000000000000000000000000000000000000000000000000000000000000000000000000000000000000000000000000000000000000000000000000000000000000000000000000000000000000000000000000000000000000000000000000000000000000000000000000000000000000000000000000000000000000000000000000000000000000000000000000000000000000000000000000000000000000000000000000000000000000000000000000000000000000000000000000000000000000000000000000000000000000000000000000000000000000000000000000000000000000000000000000000000000000000000000000000000000000000000000000000000000000000000000000000000000000000000000000000000000000000000000000000000000000000000000000000000000000000000000000000000000000000000000000000000000000000000000000000000000000000000000000000000000000000000000000000000000000000000000000000000000000000000000000000000000000000000000000000000000000000000000000000000000000000000000000000000000000000000000000000000000000000000000000000000000000000000000000000000000000000000000000000000000000000000000000000000000000000000000000000000000000000000000000000000000000000000000000000000000000000000000000000000000000000000000000000000000000000000000000000000000000000000000000000000000000000000000000000000000000000000000000000000000000000000000000000000000000000000000000000000000000000000000000000000000000000000000000000000000000000000000000000000000000000000000000000000000000000000000000000000000000000000000000000000000000000000000000000000000000000000000000000000000000000000000000000000000000000000000000000000000000000000000000000000000000000000000000000000000000000000000000000000000000000000000000000000000000000000000000000000000000000000000000000000000000000000000000000000000000000000000000000000000000000000000000000000000000000000000000000000000000000000000000000000000000000000000000000000000000000000000000000000000000000000000000000000000000000000000000000000000000000000000000000000000000000000000000000000000000000000000000000000000000000000000000000000000000000000000000000000000000000000000000000000000000000000000000000000000000000000000000000000000000000000000000000000000000000000000000000000000000000000000000000000000000000000000000000000000000000000000000000000000000000
#04354:24242424000000000000000000000000
#04358:24242424000000000000000000000000
#0105b:00630000
#01052:0000002300000000
#01057:0000004300000000
#04552:00000053
#0455b:0000000000000023
#04556:00000000006400000000000000000000000000000000000024000000000000000000000000000000000000000000000000000000000000003300000000000000
#04554:24000000000000540000000000000000
#04557:0024000000000000
#04553:00240000
#04555:0000000000000000000000000000000000000000000000005400000000000000000000000000000000640000000000000000000000000000000000000000000000000000000000000000000000000000000000000000000000000000000000000000000000000000000000000000000000000000000000000000000000000000
#0465b:00630000
#04652:0000002300000000
#04657:0000004300000000
#04756:1313
#04757:00130000
#05357:0000000000000042
#0445a:2400002400000000
#04458:00000000000000000000000000000000000000000000000000000000640000000000000000640000000000000000000000000000000000002400000000000000
#04456:0000006400000000006400000000000024000000000000000000000000005400
#04459:0000000000240000
#04455:00000024
#04457:00000000000000000000000000000000000000000000000000000000000000000000000000000000000000005400000000000000006400000000000000000000
#04452:00000024000000000000000000000000
#02456:00000000000000520000000000000000
#02452:12
#000320:12
#000360:0000522200000000
#0003c1:000000000000125252220000000000000000000000000000
#0003b1:000000000000000000000000005200520052000000000000000000000000000000000000000000000000000000000000
#000381:0012
#0003c1:0000000000005222
#000360:000000000000000000000000000000000000125252220000
#000350:000000000000000000000000000000000000000000000000000000000000000000000000005200520052000000000000
#001360:12
#001320:0000522200000000
#001381:000000000000125252220000000000000000000000000000
#001391:000000000000000000000000005200520052000000000000000000000000000000000000000000000000000000000000
#0013c1:0012
#001381:0000000000005222
#001320:000000000000000000000000000000000000125252220000
#001330:000000000000000000000000000000000000000000000000000000000000000000000000005200520052000000000000
#002320:12
#002360:0000522200000000
#0023c1:000000000000125252220000000000000000000000000000
#0023b1:000000000000000000000000005200520052000000000000000000000000000000000000000000000000000000000000
#0023c1:0012
#002381:0000000000005222
#002320:000000000000000000000000000000000000125252220000
#002330:000000000000000000000000000000000000000000000000000000000000000000000000005200520052000000000000
#0033c0:125252220000000000000000000000000000000000000000
#0033b0:005200520052000000000000000000000000000000000000000000000000000000000000000000000000000000000000
#003320:000000000000125252220000000000000000000000000000
#003330:000000000000000000000000005200520052000000000000000000000000000000000000000000000000000000000000
#0033c0:0000000000000000000000000000000012525252525222000000000000000000
#0033b0:00000000000000000000000000000000000000000000000000000000000000000052005200520052005200520000000000000000000000000000000000000000
#004320:13230000
#004360:0033000000000000
#004371:0000133300230000
#0043b1:0033
#004361:0000000000001333
#005321:33
#005361:0023000000000000
#005371:0000133300230000
#0053b1:0033
#0053b1:0000000000001323
#005360:0000000000000013
#006320:33
#006360:0023000000000000
#006320:0000132300000000
#006371:0000001300230000
#0063b1:0033
#0073b1:1323000000000000
#007321:0000132300000000
#0083b1:13
#008371:0023000000000000
#008321:00132300
#008361:0000003300000000
#0083b1:00000013
#008371:0000000000000033
#0093b1:23
#009321:00132300
#009361:0000003300000000
#009321:00000013
#009361:0000000000000023
#0093b0:0000000000000013
#010370:23
#0103b0:00130000
#010370:0000002300000000
#010321:0000001300000000
#010361:0023
#011321:1323000000000000
#0113b1:0000132300000000
#012321:12220000
#012371:0052000000000000
#012370:00122200
#0123c0:0000005200000000
#012321:0012
#012371:0000000000220000
#012371:00000000000000000000001200000000
#012321:0000000000000022
#012371:00000000000000000000000000000012
#0133c1:0022000000000000
#0133c1:00000012000000000000000000000000
#013371:0000002200000000
#013371:00000000000000120000000000000000
#0133c1:0000000000220000
#0143c1:12220000
#014371:0052000000000000
#014370:00122200
#014320:0000005200000000
#0143c1:0012
#014371:0000000000220000
#014371:000000000000000000000000000000000000000000000000000000000000000000000000000000000000000000000000000000000000000000000000000000000000000000000000000000000000000000000000000000000000000000000000000000000000000000000000000000000000000000000000000000000000000000000000120000000000005251520000000000000000000000000000000000000000000000000000220000000000000000000000000000000000000000000000
#015321:12
#015371:0022000000000000
#015321:0000001200220000
#015371:0032
#015370:0000001200220000
#0153c0:0032
#015370:0000000000000012
#016370:22
#0163c1:12220000
#016371:0052000000000000
#016370:00122200
#016320:0000005200000000
#0163c1:0012
#016371:0000000000220000
#016371:00000000000000000000001200000000
#0163c1:0000000000000022
#017371:12
#017321:0022000000000000
#017321:00000012000000000000000000000000
#017371:0000002200000000
#017371:00000000000000120000000000000000
#017321:0000000000220000
#018371:12
#018321:0032220000000000
#018370:00120000
#0183c0:0000003222000000
#018321:0000000012220000
#0183c1:00000000000000000000001200002200
#018381:0000000000000000000000000000000000000000000000003252000000000000
#018320:00000000000000000000001200002200
#018360:0000000000000000000000000000000000000000000000003252000000000000
#019360:12
#019320:00000022000000000000000000000000
#019381:00000012000000000000000000000000
#0193c1:0000002200000000
#019360:0000001200000000
#019320:00000000000000000022000000000000
#020340:12000022000000000000000000000000
#020381:00000012000022000000000000000000
#020381:00000000000000120000000000000000
#0203c1:0000000000220000
#021361:12
#021321:0022000000000000
#021321:00000012000000000000000000000000
#021361:00000000002200000000000000000000
#021361:0000001200220000
#021321:0052
#022361:1222000000000000
#022321:00000012000000000000000000000000
#022361:0000002200000000
#022321:0000000012220000
#022361:00000000000000000000001200000000
#022321:0000000000000022
#023381:1200002200000000
#0233c1:00000032000000000000000000000000
#0233c1:00001222
#023381:0000000000520000
#0243a1:12000022000000000000000000000000
#024360:00000012000022000000000000000000
#024360:00000000000000120000000000000000
#024320:0000000000220000
#025380:12
#0253c0:0022000000000000
#0253c0:00000012000000000000000000000000
#025380:00000000002200000000000000000000
#025380:0000001200220000
#0253c0:0052
#025360:0000000000000012
#026320:22
#026341:18
#026371:0022
#0273c1:1222000000000000
#027320:0012002200000000
#027370:00520000
#0273c1:0000001200220000
#027371:0052
#027370:0000000000120000
#027320:00000022
#028380:0000000012320000
#028320:0000000000000022
#028361:0000000012320000
#0283c1:0000000000000022
#029371:1323000000000000
#029321:00530000000000000000000000000000
#0293b0:0013230000000000
#029370:00000053000000000000000000000000
#029371:0000132300000000
#029321:00000000005300000000000000000000
#0293b0:0000001323000000
#029370:00000000000000530000000000000000
#029371:0000000013230000
#029321:00000000000000000053000000000000
#0293b0:0000000000130000
#029380:00000023
#029351:00000013
#029321:0000000000000033
#029341:00000000000000000000000000000053
#030361:53
#030341:00530000000000000000000000000000
#030321:0023000000000000
#029370:0000000000000013
#029390:00000000000000000000000000000053
#0303b0:53
#030390:00530000000000000000000000000000
#030370:0023000000000000
#030320:0013
#030360:0000000000230000
#0303b1:0000000000130023
#030361:00000053
#031361:13000053000000000000000000000000
#031321:00530000230000000000000000000000
#031341:0053000000000000
#031370:00000000130000530000000000000000
#0313b0:00000000005300002300000000000000
#031390:0000005300000000
#031361:00000000000000001300005300000000
#031321:00000000000000000053000023000000
#031341:0000000000530000
#031370:00000013
#0313b0:0000000000000033
#032330:54
#0323b0:0023000000000000
#031321:0000000000000013
#032391:54
#032321:0023000000000000
#033361:1323000000000000
#0333b1:00530000000000000000000000000000
#033320:0013230000000000
#033360:00000053000000000000000000000000
#033361:0000132300000000
#0333b1:00000000005300000000000000000000
#033320:0000001323000000
#033360:00000000000000530000000000000000
#033361:0000000013230000
#0333b1:00000000000000000053000000000000
#033320:0000000000130033
#033370:00000054
#034320:0033003300000000
#034370:00540000
#034380:0000000000230000
#0333b1:0000000000000013
#034351:5400000000230000
#0343b1:0033003300000000
#0343b1:0000000000000013
#035371:5323
#035391:0053005300000000
#0353b1:00530000
#0353b1:00000013
#035371:0000000000000023
#035320:0000000000000013
#036360:53
#036320:0023000000000000
#0373a0:14
#037360:0053000000000000
#0373b0:00230000
#037361:0000132300000000
#037321:00000000005300000000000000000000
#037371:00001323
#0373b1:0000000000330000
#037361:0000000000000013
#0373a1:00000000000000000000000000000053
#038371:33
#0383b1:00530000000000000000000000000000
#038381:0023000000000000
#038350:0013000000000000
#038320:00000053000000000000000000000000
#038360:00330000
#038330:00000000005300000000000000000000
#038370:0000002300000000
#0383b1:0000001300002300
#038361:00000000000000000054000000000000
#039321:14230000
#039371:0053000000000000
#039370:0000132300000000
#0393b0:00000000005300000000000000000000
#039360:00001323
#039320:0000000000330000
#039320:0000000000000013
#040370:23
#040360:0013000000000000
#0403b0:00230000
#040370:0000001300000000
#040320:0023
#0413b0:13
#041370:0023000000000000
#041321:0013003300000000
#041361:00332300
#0413b0:00135300
#041370:0000003300230000
#041321:0000000000130000
#041361:00000023
#0413b0:00000013
#041370:0000000000000023
#041321:0000000000000013
#042361:53
#042321:0023000000000000
#042370:0013000000000000
#0423b0:00230000
#042361:00130000
#042321:0000002300000000
#0423b0:0000001300230000
#042370:0053
#042320:0000000000000013
#042380:00000000000000000000000000000054
#042360:0000000000000000000000000000000000000000000000000000000000000054
#043340:5454000000000000
#043360:0054005400540054000000000000000000000000000000000000000000000000
#043380:00540054000000000000000000000000
#043350:00230000
#0423b1:0000000000000013
#042341:00000000000000000000000000000054
#042361:000000000000000000000000000000000000000000000000000000000000000000000000000000000000000000000000000000000000000000000000000000000000000000000000000000000000000000000000000000000000000000000000000000000000000000000000000000000000000000000000000000000000000000000000000000000000000000000000000000000000000000000000000000000000000000000000000000000000000000000000000000000000000000000000000000000000000000000000000000000000000000000000000000000000000000000000000000000000000000000000000000000000000000000000000000000000000000000000000000000000000000000000000000000000000000000000000000000000000000000000000000000000000000000000000000000000000000000000000000000000000000000000000000000000000000000000000000000000000000000000000000000000000000000000000000000000000000000000000000000000000000000000000000000000000000000000000000000000000000000000000000000000000000000000000000000000000000000000000000000000000000000000000000000000000000000000000000000000000000000000000000000000000000000000000000000000000000000000000000000000000000000000000000000000000000000000000000000000000000000000000000000000000000000000000000000000000000000000000000000000000000000000000000000000000000000000000000000000000000000000000000000000000000000000000000000000000000000000000000000000000000000000000000000000000000000000000000000000000000000000000000000000000000000000000000000000000000000000000000000000000000000000000000000000000000000000000000000000000000000000000000000000000000000000000000000000000000000000000000000000000000000000000000000000000000000000000000000000000000000000000000000000000000000000000000000000000000000000000000000000000000000000000000000000000000000000000000000000000000000000000000000000000000000000000000000000000000000000000000000000000000000000000000000000000000000000000000000000000000000000000000000000000000000000000000000000000000000000000000000000000000000000000000000000000000000000000000000000000000000000000000000000000000000000000000000000000000000000000000000000000000000000000000000000000000000000000000000000000000000000000000000000000000000000000000000000000000000000000000000000000000000000000000000000000000000000000000000000000000000000000000000000000000000000000000000000000000000000000000000000000000000000000000000000000000000000000000000000000000000000000000000000000000000000000000000000000000000000000000000000000000000000000000000000000000000000000000000000000000000000000000000000000000000000000000000000000000000000000000000000000000000000000000000000000000000000000000000000000000000000000000000000000000000000000000000000000000000000000000000000000000000000000000000000000000000000000000000000000000000000000000000000000000000000000000000000000000000000000000000000000000000000000000000000000000000000000000000000000000000000000000000000000000000000000000000000000000000000000000000000000000000000000000000000000000000000000000000000000000000000000000000000000000000000000000000000000000000000000000000000000000000000000000000000000000000000000000000000000000000000000000000000000000000000000000000000000000000000000000000000000000000000000000000000000000000000000000000000000000000000000000000000000000000000000000000000000000000000000000000000000000000000000000000000000000000000000000000000000000000000000000000000000000000000000000000000000000000000000000000000000000000000000000000000000000000000000000000000000000000000000000000000000000000000000000000000000000000000000000000000000000000000000000000000000000000000000000000000000000000000000000000000000000000000000000000000000000000000000000000000000000000000000000000000000000000000000000000000000000000000000000000000000000000000000000000000000000000000000000000000000000000000000000000000000000000000000000000000000000000054000000000000000000000000000000000000000000000000000000000000000000000000000000000000000000000000000000000000000000000000
#043381:5454230000000000
#043361:000000000000000000000000000000000000000000000000000000000000000000000000000000000000000000000000000000000000000000000054000000000000000000000000000000000000000000000000000000000000000000000000000000000000000000000000000000000000000000000000000000000000000000000000000000000000000000000000000000000000000000000000000000000000000000000000000000000000000000000054000000000000000000000000000000000000000000000000000000000000000000000000000000000000000000000000000000000000000000000000000000000000000000000000000000000000000000000000000000000000000000000000000000000000000000000000000000000000000000000054000000000000000000000000000000000000000000000000000000000000000000000000000000000000000000000000000000000000000000000000000000000000000000000000000000000000000000000000000000000000000000000000000000000000000000000000000000000000000000000054000000000000000000000000000000000000000000000000000000000000000000000000000000000000000000000000000000000000000000000000000000000000000000000000000000000000000000000000000000000000000000000000000000000000000000000000000000000000000000000000000000000000000000000000000000000000000000000000000000000000000000000000000000000000000000000000000000000000000000000000000000000000000000000000000000000000000000000000000000000000000000000000000000000000000000000000000000000000000000000000000000000000000000000000000000000000000000000000000000000000000000000000000000000000000000000000000000000000000000000000000000000000000000000000000000000000000000000000000000000000000000000000000000000000000000000000000000000000000000000000000000000000000000000000000000000000000000000000000000000000000000000000000000000000000000000000000000000000000000000000000000000000000000000000000000000000000000000000000000000000000000000000000000000000000000000000000000000000000000000000000000000000000000000000000000000000000000000000000000000000000000000000000000000000000000000000000000000000000000000000000000000000000000000000000000000000000000000000000000000000000000000000000000000000000000000000000000000000000000000000000000000000000000000000000000000000000000000000000000000000000000000000000000000000000000000000000000000000000000000000000000000000000000000000000000000000000000000000000000000000000000000000000000000000000000000000000000000000000000000000000000000000000000000000000000000000000000000000000000000000000000000000000000000000000000000000000000000000000000000000000000000000000000000000000000000000000000000000000000000000000000000000000000000000000000000000000000000000000000000000000000000000000000000000000000000000000000000000000000000000000000000000000000000000000000000000000000000000000000000000000000000000000000000000000000000000000000000000000000000000000000000000000000000000000000000000000000000000000000000000000000000000000000000000000000000000000000000000000000000000000000000000000000000000000000000000000000000000000000000000000000000000000000000000000000000000000000000000000000000000000000000000000000000000000000000000000000000000000000000000000000000000000000000000000000000000000000000000000000000000000000000000000000000000000000000000000000000000000000000000000000000000000000000000000000000000000000000000000000000000000000000000000000000000000000000000000000000000000000000000000000000000000000000000000000000000000000000000000000000000000000000000000000000000000000000000000000000000000000000000000000000000000000000000000000000000000000000000000000000000000000000000000000000000000000000000000000000000000000000000000000000000000000000000000000000000000000000000000000000000000000000000000000000000000000000000000000000000000000000000000000000000000000000000000000000000000000000000000000000000000000000000000000000000000000000000000000000000000000000000000000000000000000000000000000000000000000000000000000000000000000000000000000000000000000000000000000000000000000000000
#043341:00540054000000000000000000000000
#0443a1:1400003400000000
#044361:0000005400000000005400000000000054000000000000000000000000005400
#044321:00000054000000000000000000000000
#044381:00000000000000000000000000000000000000000000000000000000540000000000000000540000000000000000000000000000000000005400000000000000
#044391:0000000000540000
#044371:00000000000000000000000000000000000000000000000000000000000000000000000000000000000000005400000000000000005400000000000000000000
#044351:00000054
#045341:54000000000000540000000000000000
#045361:00000000005400000000000000000000000000000000000054000000000000000000000000000000000000000000000000000000000000000000000000000000
#045371:0054000000000000
#045351:0000000000000000000000000000000000000000000000005400000000000000000000000000000000540000000000000000000000000000000000000000000000000000000000000000000000000000000000000000000000000000000000000000000000000000000000000000000000000000000000000000000000000000
#045331:00540000
#045321:0024
#044360:14
#045360:0024
#045320:00000013
#045360:0000000000000023
#0453b1:0000000000000013
#046371:23
#0463b1:00130000
#046371:0000002300000000
#046320:0000001300000000
#046360:0023
#0473b0:1323000000000000
#047320:0000132300000000
#048320:13
#048370:0023000000000000
#0483b1:0013000000000000
#048361:00230000
#0483b1:0013
#048361:0000000000230000
#048320:0000000000130000
#048370:00000023
#0493b0:13230000
#049360:0033000000000000
#049320:00001323
#049370:0000000000330000
#0503b0:13230000
#050360:0033000000000000
#0503a0:0000000000000014
#0513c0:000000000000000000000000525252525252520000000000000000000000000000000000525252525252520000000000
#0513b0:000000000000000000000000000000000000000000000000005200520052005200520052000000000000000000000000000000000000000000000000000000000000000000000000005200520052005200520052000000000000000000000000
#051380:000000000000000000000000000000000000000000000000525252525252520000000000000000000000000000000000
#051370:000000000000000000000000000000000000000000000000000000000000000000000000000000000000000000000000005200520052005200520052000000000000000000000000000000000000000000000000000000000000000000000000
#0523c0:525252525252520000000000525252525252520000000000000000000000000000000000525252525252220000000000
#0523b0:005200520052005200520052000000000000000000000000005200520052005200520052000000000000000000000000000000000000000000000000000000000000000000000000005200520052005200520052000000000000000000000000
#052380:000000000000000000000000000000000000000000000000525252525252520000000000000000000000000000000000
#052370:000000000000000000000000000000000000000000000000000000000000000000000000000000000000000000000000005200520052005200520052000000000000000000000000000000000000000000000000000000000000000000000000
#051321:0000000012220000
#051371:0000000000001222
#052321:1222000000000000
#052371:0000122200000000
#052321:0000000012220000
#052371:0000000000001232
#053321:525252525252520000000000525252525252520000000000000000000000000000000000525252525252520000000000
#053331:005200520052005200520052000000000000000000000000005200520052005200520052000000000000000000000000000000000000000000000000000000000000000000000000005200520052005200520052000000000000000000000000
#053361:000000000000000000000000000000000000000000000000525252525252520000000000000000000000000000000000
#053371:000000000000000000000000000000000000000000000000000000000000000000000000000000000000000000000000005200520052005200520052000000000000000000000000000000000000000000000000000000000000000000000000
#055371:00220000
#0533c0:1222000000000000
#053370:0000122200000000
#0533c0:0000000012220000
#053370:0000000000001222
