This file was generated by Ched 2.7.0.0.
#TITLE " "
#ARTIST ""
#DESIGNER ""
#DIFFICULTY 0
#PLAYLEVEL
#SONGID ""
#WAVE ""
#WAVEOFFSET 0
#JACKET ""
#REQUEST "ticks_per_beat 480"
#00002: 4
#BPM01: 85
#00008: 01
#TIL00: ""
#VOLUME: ""
#HISPEED 00
#MEASUREHS 00
#03014:0014
#03012:14
#03018:00140000
#0301a:00000014
#04412:0000001400000000
#04414:14
#00414:00140014
#0041a:2414
#00410:41
#00518:1414
#00512:00140014
#0061a:14
#00614:00140000
#00618:0014
#00612:00000014
#00818:00140014
#00812:1414
#00914:1414
#0091a:00140014
#01012:14
#01018:00140000
#01014:0014
#0101a:00000014
#0121a:14
#01214:00140000
#01218:0014
#01212:00000014
#01318:14
#01314:00140000
#01310:41
#01412:14
#01418:00140000
#01414:0014
#0141a:00000014
#01514:14
#01518:00140000
#0161a:14
#01612:00140000
#01618:0014
#01614:00000014
#0171a:14
#01712:00140000
#01812:14
#0181a:00140000
#01814:0014
#01818:00000014
#01912:14
#0191a:00140000
#02018:00140000
#0201a:14000014
#02010:41
#02618:16
#02712:16
#02914:0014001400000000
#0291a:24242400
#0291f:21
#02910:0041
#03112:14141400
#03118:0014001400000000
#03218:0014
#0321a:14
#03214:00140000
#03212:00000014
#03314:0014001400000000
#0331a:24242400
#0351a:0000000000000014
#03514:00000014000000000000000000000000
#0371a:00140000
#03714:00001414
#03718:0000000000140000
#03712:24
#0381a:14
#03812:00140000
#03818:00001414
#03814:0000000000140000
#03912:14
#03918:00140000
#03914:00001414
#0391a:0000000000140000
#03910:41
#0401a:14
#04014:00140000
#04018:00001414
#04012:0000000000140000
#04312:14
#0431a:0014
#04112:14
#04118:00140000
#04114:0014
#0411a:00000014
#04212:14
#04218:00140000
#04214:0014
#0421a:00000014
#02112:00140000
#02114:14000014
#0221a:00140000
#02218:14000014
#0221f:11
#02314:00140000
#02312:14000014
#0241a:00000014
#02512:00000014
#03618:0000001400000000
#04918:1400000000140000
#04914:0014000014000000
#0491a:00240000
#04912:00000024
#05014:0014000014000000
#05018:1400000000140000
#0501a:00240000
#05012:00000024
#04814:0014
#04818:0000000000140000
#04812:24000024
#0481a:00240000
#0461a:14
#04614:00140000
#04618:0014
#04612:00000014
#03412:0000000000000014
#02814:24
#00019:00340000
#00018:0034
#00112:0034
#00113:00340000
#00219:00340000
#0021a:0034
#00313:00340000
#00314:0034
#04710:41
#0045a:14
#04452:0000006400000000
#04454:64
#02058:00240000
#0205a:64
#02752:66
#02854:14
#02658:56
#0355a:0000000000000054
#03554:00000024000000000000000000000000
#03752:14
#04352:54
#0435a:0064
#00852:14
#02152:00240000
#02154:64
#0225a:00240000
#02258:54
#02354:00240000
#02352:54
#03152:0054
#0295a:0054
#03658:0000005400000000
#04852:14
#03452:0000000000000064
#0003a0:14
#000390:00340000
#000380:00003424
#001340:14
#001330:00340000
#001320:00003424
#002380:14
#002390:00340000
#0023a0:00003424
#003320:14
#003330:00340000
#003340:00003424
#0073a0:1434
#007380:00340024
#011320:14003424
#011340:00340000
#0133a0:00001424
#015320:00001424
#017380:0014
#0173a0:00000024
#019340:0014
#019320:00000024
#0203a0:1424
#020380:00340000
#021340:1424
#021320:00340000
#022380:1424
#0223a0:00340000
#023320:1424
#023340:00340000
#0243a0:1424
#024380:00340000
#025320:1424
#025340:00340000
#026380:16000024
#027320:16
#028340:24
#0293a0:0014
#029380:00000024
#031320:0014
#031340:00000024
#033340:0000000000140000
#033320:0000000000000034
#034340:0034000000340000
#034320:0000003400000034
#035340:00000054000000000000000000000000
#035320:0024
#0353a0:0000000000001434
#036380:0000003400000000
#0363a0:00000024
#043320:14
#043340:00240000
#0433a0:0014
#043380:00000024
#044340:14
#044320:0000003400000000
#045360:00000024
#0473a0:1434
#047380:00340024
#0503a0:0000000000000014
#0513a0:00340034
#051380:0034
#0523a0:34340034
#052380:0034
#0533a0:3400340000003434
#053380:0034
#0553b0:00230000
