This file was generated by Ched 2.7.0.0.
#TITLE ""
#ARTIST ""
#DESIGNER ""
#DIFFICULTY 0
#PLAYLEVEL
#SONGID ""
#WAVE ""
#WAVEOFFSET 0
#JACKET ""
#REQUEST "ticks_per_beat 480"
#00002: 4
#BPM01: 210
#00008: 01
#TIL00: ""
#VOLUME: ""
#HISPEED 00
#MEASUREHS 00
#00313:14
#0051a:14
#0061a:14
#00714:14
#00814:14
#00918:14
#07318:14
#00119:14
#01018:14
#01112:14
#01212:14
#0131a:14
#01310:41
#0291a:14
#02910:41
#03014:14
#0311a:14
#03214:14
#03318:14
#03412:14
#03518:14
#03612:14
#0371a:14
#03814:14
#0391a:14
#04014:14
#04612:1616
#04618:00160000
#04518:2616
#04512:00160000
#04510:41
#04918:16
#04912:0016
#05018:16
#05012:0016
#0611a:14
#06110:41
#0621a:14
#06314:14
#06414:14
#06518:14
#06618:14
#07718:14
#07918:14
#0791f:11
#08413:14
#0751a:14
#07510:41
#08019:14
#08314:14
#0871a:14
#08819:14
#09512:00160000
#09518:2616
#0951f:21
#09718:16
#09712:0016
#09710:41
#12318:14
#12412:14
#12214:14
#01414:14
#01712:14
#01818:14
#02118:14
#02212:14
#02514:14
#0261a:14
#07212:14
#07414:14
#07614:14
#07812:14
#09112:14
#09213:14
#10718:1616
#10912:1616
#1111a:14
#1121a:14
#11314:14
#11414:14
#11518:14
#11618:14
#00219:14
#00413:14
#05418:1616
#05412:00160000
#05312:2616
#05318:00160000
#05712:16
#05718:0016
#05812:16
#05818:0016
#09612:1616
#09618:00160000
#09912:1616
#09918:00160000
#10018:1616
#10012:00160000
#10218:0016
#10318:00160000
#10312:2616
#10512:16
#10518:0016
#10418:1616
#10412:00160000
#06918:26
#11918:26
#0153a0:14
#0163a0:24
#019320:14
#020320:24
#023380:14
#024380:24
#027340:14
#028340:24
#041390:14
#042390:24
#043330:14
#044330:24
#047380:1626
#048320:1626
#051380:1636
#052380:26
#055320:1626
#056380:1626
#059320:1636
#060320:26
#067320:14
#068320:24
#069380:16
#071380:26
#0813a0:14
#0823a0:24
#085320:14
#086320:24
#089380:14
#090380:24
#093340:14
#094340:24
#098380:1626
#101320:1636
#102320:26
#106320:1626
#108380:1626
#110320:1626
#117320:14
#118320:24
#119380:16
#121380:26
#125380:16000000000000360000000000003600
#131390:24
