This file was generated by Ched 2.7.0.0.
#TITLE ""
#ARTIST ""
#DESIGNER ""
#DIFFICULTY 0
#PLAYLEVEL
#SONGID ""
#WAVE ""
#WAVEOFFSET 0
#JACKET ""
#REQUEST "ticks_per_beat 480"
#00002: 4
#BPM01: 210
#00008: 01
#TIL00: ""
#VOLUME: ""
#HISPEED 00
#MEASUREHS 00
#01817:0000001300000013
#01812:0000130000000013
#01816:00000013
#02917:00130000
#02918:0013
#02915:0000001300000000
#02916:13
#02912:0000000000000013
#02910:41
#03318:13
#03316:0000131300000000
#03317:0000000000000013
#03312:0000000000001313
#0331b:0000001300000000
#06812:14000024
#06816:0000131300000000
#0681a:1400001400000000
#06817:0000000000132300
#00318:1333330000131300
#00315:0000001300330000
#00312:13
#00515:0013000000130013
#00518:00130013
#00512:1300001300000000
#0061b:1300001300000000
#00618:0013000000130013
#00615:00130013
#00712:1300001300000000
#00715:0013000000130013
#00718:00130013
#0091b:1300001300000000
#00918:0013000000130013
#00915:00130013
#00912:13
#01012:1300001300000000
#01015:0013000000130013
#01018:00130013
#0111b:1300001300000000
#01118:0013000000130013
#01115:00130013
#0131b:0013
#01319:00000013
#01316:0013
#01314:00000013
#01312:24
#01310:41
#01412:1300131300000000
#01417:1300001300000000
#01416:00000013
#01515:0000000000000013
#0151b:1300000000000013
#01517:0000001300000000
#01512:00130000
#01516:1300000000130000
#01518:00000013
#01616:0013
#0161b:00131300
#01612:00000013
#01617:00000013
#01716:13000013
#0171b:1300000000000013
#01712:0000131300000000
#01717:0000001300000000
#02616:0000001300000013
#0261b:0000130000000013
#02617:00000013
#03017:1300000000000013
#03016:00130000
#03015:0013
#03018:0000001300000000
#03012:13
#03217:00000013
#03215:0000000000000013
#0321b:1313
#03216:0013
#03416:0000001300000000
#0341b:0013
#03414:0000000000130000
#03419:00000013
#03412:0000000000000013
#03517:1300000000001313
#03516:0000131300000000
#0351b:0000001300000000
#03512:0000000000000013
#04016:00000013
#04018:0000000000000013
#0401a:14
#04012:1413
#04017:0013
#0411b:13
#04117:0013
#04112:2300001313000000
#04215:0000001300130000
#04218:0000000013000013
#04516:13000013
#04517:0013
#0451b:23000013
#04510:41
#04617:13000013
#04616:0013
#04612:13000013
#05112:1300000000000013
#0511b:0000001313000000
#05116:0013
#05212:1313
#0521b:00130000
#05217:1313
#05216:00000013
#06018:0000000000000013
#06015:00000013
#06017:0000000000130000
#06016:0000001300000000
#0601b:0000001300000000
#06012:23
#06116:00000013
#06117:0000001300000000
#06112:2400001300000000
#0611b:0000000000130013
#0611a:24
#06110:41
#06212:0013000013000000
#06215:00130013
#06218:0000001300000013
#0621b:0013
#0791b:13
#07915:13
#07912:00130013
#07918:00130013
#0791f:11
#08216:0013
#0821b:0013
#08214:00000013
#08219:00000013
#08212:13
#0851b:1300000000000033
#08517:0013
#08512:0013
#08516:0000000000000033
#0781b:0013000013000000
#07812:00230013
#07815:0013
#07818:13230013
#08112:1300000000000013
#0811b:0000001313000000
#08118:13
#09115:0013
#09118:23
#00418:13
#00415:13
#0041a:0000000000240000
#00412:0000000033240000
#0041b:0033
#02112:2413
#02114:00000013
#02117:0013
#02119:00000013
#0221b:1300131300000000
#02216:1300001300000000
#02217:00000013
#02318:0000130000130013
#02316:0000001300000000
#02315:0013000000001300
#02312:1300000000000013
#0231b:0000001300000000
#02417:0013
#02412:00131300
#0241b:00000013
#02416:00000013
#02517:13000013
#02512:1300000000000013
#0251b:0000131300000000
#02516:0000001300000000
#0281b:13
#02819:00130000
#02817:0013
#0311b:00130000
#03116:0000001400001300
#03112:1313
#03117:1313
#03716:00130000
#03712:1313
#03718:0000001300000000
#03717:13
#0371b:0000000000000013
#03816:1300000000000013
#03817:00130000
#0381b:1313
#03815:0000001300000000
#03912:00130000
#03916:1300001413000000
#0391b:1313
#03918:00000013
#03915:0000000000000013
#0431b:13
#04312:13
#04717:0000001313000000
#04716:1300000000000013
#0471b:13
#04712:0013
#04812:0013
#0481b:13000013
#04817:0013
#04816:13
#04912:13
#04917:0013
#04916:00130000
#0491b:00000013
#05012:13
#05015:00130013
#0501b:0013
#05018:00130013
#0631b:00000013
#06318:0000001300000013
#06312:2400000000130000
#06315:0000001300000013
#0631a:24
#0641b:0013000000000000
#06418:0000131300000013
#06415:0000001300001300
#06412:0000000000130000
#07112:1300000000130000
#0711b:0013000000000000
#07118:0000001300000000
#07115:0000000013000013
#0721b:0013000013000000
#07218:1300000000130000
#07212:0000001300001300
#07215:0000000000000013
#0731b:1300000000130000
#07312:0013000000000000
#07315:0000001300000000
#07318:0000000013000013
#07412:0013000000000000
#07415:13
#07418:0000001300000000
#0741b:00000023
#08015:13000013
#0801b:13000013
#08316:0013
#08317:13
#08312:13
#0841b:13
#08412:0013
#08415:00130000
#08418:00000013
#09012:0013
#09015:00000013
#0901b:13
#09018:0013
#09512:13000013
#0951b:0013
#09517:23000013
#09519:0000000000130000
#0951f:21
#1011b:1300000000000013
#10112:0000001313000000
#10117:0013
#1021b:13
#10212:0013
#10216:13
#10217:0013
#10214:00000013
#10219:00000013
#0981b:0013
#09812:13000013
#09816:0013
#09817:13
#0991b:13
#09912:0013
#09914:00130000
#09919:00000013
#1001b:13
#10018:00130013
#10012:0013
#10015:00130013
#11016:0000000000130000
#11015:0000000000000013
#11017:0000001300000000
#11018:00000013
#11012:0000001300000000
#1101b:23
#11117:00000013
#11116:0000131300000000
#1111b:0000001300000000
#11112:2400000000130013
#1111a:24
#1121b:0013000013000000
#11218:00130013
#11215:0000001300000013
#11212:0013
#11312:24000013
#11315:0000001300000013
#1131b:0000000000130000
#11318:0000001300000013
#1131a:24
#11412:0013000013000000
#11415:0000130000130000
#11418:0000001300001300
#1141b:0013
#11812:14000024
#11816:0000131300000000
#1181a:1400001400000000
#11817:0000000000132300
#12115:0013000000130000
#12118:00130013
#12112:1300001300000013
#1221b:1300001300000013
#12218:0013000000130000
#12215:00130013
#12315:0013000000130000
#12318:00130013
#12312:1300001300000013
#1241b:1300001300000000
#12418:00001300000000000000130000230023
#12415:0000130000002323
#00112:13
#00116:0000001300000000
#00118:0000000000130000
#00115:00000013
#0011b:0033330000000000
#0021b:13
#00217:0000001300000000
#00215:0000000000130000
#00218:00000013
#00212:0033330000000000
#00812:1313
#0081b:1313
#00819:0013000000000000
#00817:00130000
#00815:0000001300000000
#00814:0000000000130000
#00816:00000013
#00818:0000000000000013
#0121b:13
#05917:0013
#05912:00131313
#0591b:13
#06517:00000013
#0651b:0000001300000000
#06512:2400000000130013
#06516:0000001300000000
#0651a:24
#0661b:0013000013000000
#06618:00130000
#06615:0000001300000000
#06612:0013
#06613:00000024
#06619:00000024
#07012:1414001400142400
#0751b:1300000000130000
#07512:0013000000000000
#07515:0000001300000000
#07518:0000000013000013
#07510:41
#07612:0013000013000000
#07615:1300000000130000
#0761b:0000001300001300
#07618:0000000000000013
#07712:1300000000130000
#0771b:0013000000000000
#07718:0000001300000000
#07715:0000000013000013
#08712:13
#08718:13
#0871b:00130013
#08715:00130013
#0861b:00000013
#08615:00000013
#08612:0023
#08618:0023
#0891b:1300000000000013
#08912:0000001313000000
#08915:13
#08818:13000013
#08812:13000013
#09212:1313
#0921b:13
#0931b:13
#09317:0013
#09412:13
#0941b:0013
#09416:0013
#09419:00000013
#09414:00000013
#11516:00000013
#11512:2400001300000000
#1151b:0000000000130013
#11517:0000001300000000
#1151a:24
#11612:0013000013002500
#11615:00130000
#11618:0000001300000000
#1161b:0013
#11619:00000025
#11718:13
#11715:13
#0961b:13000013
#09612:0013
#09616:13000013
#09614:0000000000130000
#10912:13
#10612:0013
#1061b:13000013
#10617:0013
#10616:13
#10712:13
#10719:00130000
#1071b:0013
#10714:00000013
#10812:13
#10815:00130013
#1081b:0013
#10818:00130013
#02012:14141414
#05317:13000013
#05316:0013
#05312:00000013
#05416:13000013
#05417:0013
#0541b:13000013
#05516:0000001313000000
#05517:1300000000000013
#05512:13
#0551b:0013
#05612:13000013
#05617:13
#0561b:0013
#05616:0013
#09717:1300000000000013
#09712:13
#09716:0000001313000000
#0971b:0013
#09710:41
#1031b:13000013
#10312:0013
#10316:23000013
#10314:0000000000130000
#10412:13000013
#1041b:0013
#10417:13000013
#10419:0000000000130000
#10516:1300000000000013
#1051b:13
#10517:0000001313000000
#10512:0013
#0571b:13
#05716:0013
#05717:00130000
#05712:00000013
#0581b:13
#05818:00130013
#05812:0013
#05815:00130013
#04412:0024
#0441a:0024
#04419:00230000
#04418:23
#04414:00230000
#04415:23
#06918:24
#06914:24
#11918:24
#11914:24
#03612:0024
#0361a:0024
#06712:24
#0671a:24
#12512:00000000000000340000000000003400
#01857:0000005300000053
#00358:53
#00355:0000006300000000
#01457:0000005300000000
#01555:0000000000000063
#0155b:63
#01557:0000005300000000
#02656:0000006300000063
#03357:0000000000000053
#0335b:0000006300000000
#03557:6300000000000063
#03556:0000005300000000
#0415b:63
#04157:0063
#04152:0053
#04556:63
#04657:63
#05152:63
#0515b:0053
#05252:53
#05257:0053
#05256:00130063
#0525b:00130000
#0795b:53
#07955:53
#07958:00230000
#07952:00230000
#0855b:63
#08557:0063
#08552:0063
#08152:63
#0815b:0053
#00458:63
#0045a:0000000000140000
#00455:53
#00452:0000000000140000
#01757:0000005300000000
#0175b:0000000000000063
#02256:0000006300000000
#02358:0000000000000053
#02356:0000006300000000
#02556:0000006300000000
#02552:0000000000000053
#02956:63
#02958:0013
#03152:53
#03156:00000063
#03157:0053
#03057:53
#03055:0013
#03256:0063
#03252:13
#0325b:13
#03752:0033
#03757:53
#0385b:0043
#03856:63
#0395b:63
#03956:0063
#04057:0053
#0405a:14
#0435b:63
#04352:53
#04852:0063
#0485b:00000053
#04856:13
#04952:63
#04957:0053
#04956:00230000
#0495b:00000023
#05052:63
#05055:00230000
#0505b:0053
#05058:00000023
#06152:1400005300000000
#0615b:0000000000000063
#06358:0000006300000000
#06355:0000000000000053
#0635a:14
#06458:0000005300000000
#08055:63
#0805b:63
#08356:0063
#08357:53
#0845b:53
#08452:0063
#09552:63
#1015b:53
#10152:0063
#1025b:63
#10256:63
#10257:00130000
#10252:00130000
#0985b:0063
#09852:13000053
#0995b:63
#09952:0053
#1005b:53
#10058:00230000
#10052:0063
#10055:00000023
#11057:0000005300000000
#11056:13
#1105b:13
#1115b:0000006300000000
#11152:0000000000000053
#1115a:14
#11355:0000005300000000
#11358:0000000000000063
#11352:14
#11458:00000063
#06958:64
#04459:00130000
#04458:13
#04454:00130000
#04455:13
#04452:0014
#0445a:0014
#11958:64
#11954:54
#06752:54
#0675a:54
#02852:0013
#02857:0053
#0865b:13
#08656:13
#08258:13
#08252:13
#03652:0014
#0365a:0014
#05957:0023
#0595b:53
#06552:1400000000000053
#0655b:0000006300000000
#0685a:0000001400000000
#06852:00000014
#08752:63
#08758:63
#08755:00230000
#0875b:00230000
#0895b:53
#08952:0063
#08858:53
#08852:53
#0905b:13
#09055:13
#0935b:53
#09357:0023
#09252:0053
#0925b:53
#1155a:14
#11552:0000005300000000
#1155b:0000000000000063
#1185a:0000001400000000
#11852:00000014
#11758:53
#11755:53
#1205a:0000000000140000
#12052:0000000000140000
#0965b:53
#10952:63
#10652:0053
#1065b:13000063
#10752:53
#1075b:0063
#10852:63
#10855:00230000
#1085b:0053
#10858:00000023
#04756:13
#04757:0013
#05357:53
#05456:53
#05557:13
#05556:0013
#05657:13
#0565b:0053
#05652:00000063
#09752:13
#0975b:0013
#1035b:53
#10452:63
#1055b:13
#10552:0013
#07052:00000014
#06056:0000006300000000
#0575b:53
#05756:0063
#05757:00230000
#05752:00000023
#0585b:53
#05858:00230000
#05852:0063
#05855:00000023
#001370:13
#0013b0:0033332300000000
#002360:13
#002320:0033332300000000
#003380:1333330000000000
#0033b0:0000002300000000
#003351:0000001300330000
#003321:00000023
#004381:13
#0043b1:0033
#0043a1:0000000000240000
#004350:13
#004320:0000000033240000
#0053b0:0000001300230000
#006320:0000001300230000
#0073b0:0000001300230000
#009320:0000001300230000
#0103b0:0000001300230000
#011320:0000001300230000
#012360:13
#012340:0033000000000000
#012320:00230000
#012371:00130000
#012391:0000003300000000
#0123b1:0023
#012320:0013
#012340:0000000000330000
#012360:00000023
#0123b1:00000013
#012391:0000000000000033
#013371:23
#014371:0000001300000000
#0143b1:00000023
#0153b1:13
#015371:00230000
#015371:0000001300000000
#0153b1:0000000000230000
#015351:0000000000000013
#016321:00230000
#017371:0000001300000000
#0173b1:00000023
#0173b1:0000000000000013
#018371:00230000
#018371:0000001300000000
#0183b1:00000023
#018371:0000000000000013
#0203a1:34343434
#0213a1:24
#022361:0000001300000000
#022321:00000023
#023361:0000001300000000
#023321:0000000000230000
#023381:0000000000000013
#0243b1:00230000
#025361:0000001300000000
#025321:00000023
#025321:0000000000000013
#026361:00230000
#026361:0000001300000000
#026321:00000023
#026361:0000000000000013
#028321:33332300
#028370:0013
#0293b0:23
#029361:13
#029321:00230000
#030371:13
#0303b1:00230000
#031321:13
#031361:00230000
#031371:0013
#0313b1:00000023
#031360:00000013
#032320:23
#032360:0013
#032320:00000023
#0333b0:0000001300000000
#033370:00000023
#033370:0000000000000013
#0343b0:0000002300000000
#035370:13
#0353b0:00230000
#035360:0000001300000000
#035320:00000023
#035370:0000000000000013
#0363a0:0024
#037370:13
#0373b0:00230000
#038360:13
#038320:00230000
#0393b0:13
#039370:00230000
#039360:0013
#039320:00000023
#040370:0013
#0403b0:00000023
#0413b0:13
#041370:0000003333000000
#0423b0:23
#041321:0013
#042361:23
#0433b1:13
#044381:23
#043320:13
#044350:23
#045360:13
#045320:0023
#046370:13
#0463b0:0023
#048320:0013
#048360:00000023
#0483b1:00000013
#049371:23
#049320:1323
#049360:00530000
#049371:0013
#0493b1:00000053
#050371:23
#050320:1323
#050350:00530000
#0503b1:0013
#050381:00000053
#0513b1:23
#051320:13
#051360:0000002300000000
#0513b0:0013
#051370:0000000000000023
#052320:13
#052360:00230000
#052370:0013
#0523b0:00000023
#052361:00000013
#053321:23
#053370:13
#0533b0:0023
#054360:13
#054320:0023
#0563b0:0013
#056370:00000023
#056321:00000013
#057361:23
#0573b0:1323
#057370:00530000
#057361:0013
#057321:00000053
#058361:23
#0583b0:1323
#058380:00530000
#058321:0013
#058351:00000053
#059321:23
#0593b0:13
#059370:0053
#0603b0:23
#060360:0000001300000000
#060320:0000000000230000
#061320:0000001300000000
#061360:0000000000230000
#0613b0:0000000000000013
#062370:0023000000000000
#063380:0000001300000000
#0633b0:0000000000230000
#063350:0000000000000013
#064320:0023000000000000
#064380:0000001300000000
#0643b0:0000000000230000
#0653b0:0000001300000000
#065370:0000000000230000
#065320:0000000000000013
#066360:0023000000000000
#067320:14
#067340:00000024
#0673a1:14
#067381:00000024
#069381:14
#0703a1:3434003400343400
#0713a1:24
#074321:0013
#074341:0000000000330000
#074361:00000023
#0793b1:1323
#079381:00530000
#079350:1323
#079320:00530000
#080350:13
#080320:0023
#0803b1:13
#080381:0023
#081321:13
#081351:0000003323000000
#0813b0:0013
#081380:0000000000000033
#082380:23
#083370:13
#0833b0:0023
#083361:0013
#084321:23
#0843b0:13
#084380:00332300
#084321:0013
#084351:00000033
#085351:23
#0853b0:1300000000000033
#085370:0033
#0863b0:23
#085321:0013
#085361:0000000000000033
#086361:23
#087321:1323
#087351:00530000
#087380:1323
#0873b0:00530000
#088380:13
#0883b0:0023
#088321:13
#088351:0023
#0893b1:13
#089381:0000003323000000
#089320:0013
#089350:0000000000000033
#090350:23
#0923b0:13
#092370:0023
#092321:0013
#093361:23
#0933b0:13
#093370:0053
#0943b0:23
#095320:13
#095360:0023
#0963b0:13
#096370:0023
#0983b0:0013
#098370:00000023
#098321:00000013
#099361:23
#0993b0:13
#099370:0023
#099321:0013
#100361:23
#1003b0:1323
#100380:00530000
#100321:0013
#100351:00000053
#101321:23
#1013b0:13
#101370:0000002300000000
#101320:0013
#101360:0000000000000023
#1023b0:13
#102370:00230000
#102361:13
#102321:00230000
#1033b1:13
#103371:0023
#104321:13
#104361:0023
#106321:0013
#106361:00000023
#1063b0:00000013
#107370:23
#107321:13
#107361:0023
#1073b0:0013
#108370:23
#108321:1323
#108351:00530000
#1083b0:0013
#108380:00000053
#1093b0:23
#109321:13
#110361:23
#110371:0000001300000000
#1103b1:0000000000230000
#1113b1:0000001300000000
#111371:0000000000230000
#111321:0000000000000013
#112361:0023000000000000
#113351:0000001300000000
#113321:0000000000230000
#113381:0000000000000013
#1143b1:0023000000000000
#114381:00000013
#1153a1:24
#115321:0000001300000000
#115361:0000000000230000
#1153b1:0000000000000013
#116371:0023000000000000
#117381:13
#1173b1:00000023
#117350:13
#117320:00000023
#119380:14
#1203a0:0000000000240000
#119341:14
#120321:0000000000240000
#1213b1:0000001300230000
#122321:0000001300230000
#1233b1:0000001300230000
#124321:0000001300230000
#125321:14000000000000340000000000003400
#131321:22
