This file was generated by Ched 2.7.0.0.
#TITLE ""
#ARTIST ""
#DESIGNER ""
#DIFFICULTY 0
#PLAYLEVEL
#SONGID ""
#WAVE ""
#WAVEOFFSET 0
#JACKET ""
#REQUEST "ticks_per_beat 480"
#00002: 4
#BPM01: 210
#00008: 01
#TIL00: ""
#VOLUME: ""
#HISPEED 00
#MEASUREHS 00
#0291a:14
#02918:00131300
#02912:1400000000000013
#02915:0000001300000000
#02910:41
#0301b:1300000000000013
#03015:00131300
#03018:0000001300000000
#0181b:0000000000000013
#01812:0000001300000000
#0321b:13
#03215:13000013
#03218:0000000000000013
#03312:13
#0331b:00130000
#03315:0000001300000013
#03318:00000013
#06812:14000023
#06818:00130000
#06815:0000001300000000
#0681a:14
#0681b:0000000000130000
#00118:1333330000000000
#00215:1333330000000000
#00318:1333330000330000
#0031b:0000001300000000
#0051b:13
#00515:0013000000001300
#00518:0000130000130013
#00512:0000001300000000
#00612:13
#00618:0013000000001300
#00615:0000130000130013
#0061b:0000001300000000
#0071b:13
#00715:0013000000001300
#00718:0000130000130013
#00712:0000001300000000
#00812:13
#00818:0013000000001300
#00815:0000130000130013
#0081b:0000001300000000
#0091b:13
#00918:0013000000130013
#00915:00130013
#00912:0000001300000000
#01012:13
#01015:0013000000130013
#01018:00130013
#0101b:0000001300000000
#01215:0013000000130013
#01218:00130013
#01212:13
#0121b:0000001300000000
#01312:00001313
#0131a:24
#01310:41
#01418:13
#01415:0000131300000000
#0151b:13130000
#01515:0000001300000000
#01518:0000000000130013
#01512:00000013
#01612:0013
#01617:0013
#01614:00000013
#01619:00000013
#01716:13
#0171b:13
#01715:0000131300000000
#01718:0000000000000013
#0211b:00001313
#02112:24
#0211a:24
#02215:13
#02218:0000131300000000
#02312:13130000
#02318:0000001300000000
#02315:0000000000130013
#0231b:00000013
#0241b:0013
#02416:0013
#02419:00000013
#02414:00000013
#02517:13
#02512:13
#02518:0000131300000000
#02515:0000000000000013
#03112:13
#03118:00131300
#03115:0000001300001300
#0311b:00000013
#0341b:0000001300000013
#03415:00001313
#03418:0000000000130000
#03512:1300000000000013
#0351b:00130000
#03515:0000001300000000
#03518:00000013
#03712:14
#03715:00131300
#0371a:14
#03718:0000001300000000
#0371b:0000000000000013
#03812:1300000000000013
#03818:00131300
#03815:0000001300000000
#04012:13
#04018:13000013
#04015:0000000000000013
#03912:00000013
#03918:0000001300001300
#0391b:13
#03915:00131300
#04112:0000001300000000
#04118:0013
#0411b:23
#04215:0000001300130000
#04218:0013
#0421b:0000000000000013
#04312:13
#04518:13000013
#04515:0013
#04510:41
#04615:13000013
#04618:0013
#04718:13
#04715:0013
#04818:1313
#04812:0013
#04815:00000013
#0481b:00000013
#04912:13
#04918:0013
#05015:0013
#0501b:00000013
#05012:13
#05018:00130000
#05112:13
#0511b:0013
#05215:13
#0521b:0013
#05218:00000013
#0561b:0013
#05615:1313
#05618:00000013
#05612:00000013
#0571b:13
#05715:0013
#05815:13
#05818:00130000
#05812:0013
#0581b:0013
#05814:0000000000000014
#05918:14
#06012:0000001400000000
#0601a:0000001400000000
#06015:0000000000130013
#06018:00000013
#06112:0000001300000000
#06118:0000000000130000
#06115:00000013
#0611b:0000000000000013
#0611a:24
#06110:41
#06215:0013000000001300
#06218:0000130000000013
#06212:0000001300000000
#0621b:0013
#0631b:0000001300000000
#06315:0000000000130000
#06318:00000013
#06312:2400000000000013
#0641b:0013000000333333
#06415:00130000
#06418:0000001300000000
#07216:13
#0721b:13131313
#07312:13
#07317:13
#07313:00130000
#07314:0013
#07315:00000013
#07416:13
#0741b:13
#0741a:00130000
#07419:0013
#07418:00000023
#07512:13131313
#07517:13
#07510:41
#07616:13
#0761b:13131313
#07712:13
#07717:13
#07713:00130000
#07714:0013
#07715:00000013
#07816:13
#0781b:13230000
#07818:0013
#07815:00000013
#07812:00230000
#07918:13000013
#07915:0013
#0791f:11
#08015:13000013
#08018:0013
#08218:0013
#08215:00000013
#08312:13
#08318:0013
#08415:0013
#08412:00000013
#0841b:13
#08418:00130000
#08515:1300000000000033
#08512:0013
#0851b:1300000000000033
#08518:0013
#09012:0013
#09015:00000013
#0921b:13
#09218:0000130000000013
#09215:0013
#09315:13
#0811b:13
#08112:0013
#09115:0013
#09118:23
#09515:0013
#09518:00000013
#0951b:13
#0951f:21
#09612:13
#09618:0013
#09615:00000013
#09718:13
#09715:0013
#09710:41
#09818:0013
#09815:00000013
#10015:0013
#10012:00000013
#1001b:13
#10018:00130000
#1011b:1300000000000033
#10118:0000003313000000
#10112:1300000000000033
#10115:0000003313000000
#09415:00000013
#09418:0013
#0991b:13
#09915:0013
#10918:13
#10915:13
#1151b:0000001300000000
#11515:0000000000130013
#11518:00000013
#11512:2300001300000000
#11612:0013
#1161b:0013000000000000
#11618:00130000
#11615:0000001300000000
#1161a:00000024
#11614:00000024
#11712:14
#11718:14
#11012:0000001400000000
#1101a:0000001400000000
#11015:0000000000130013
#11018:00000013
#1101b:23
#11115:0000130000130000
#1111b:00000013
#11112:0000000000000013
#11118:0000001300000000
#1111a:24
#1121b:0013000000000000
#11218:00130013
#11215:0000001300000013
#11212:0013
#11312:0000001300000000
#11318:0000000000130000
#11315:00000013
#1131b:0000000000000013
#1131a:24
#11412:0013001300000000
#11418:00130000
#11415:00000013
#12112:1300000000130000
#12118:0013000000000013
#12115:00130013
#1211b:0000001300000000
#1221b:1300000000130000
#12215:0013000000000013
#12218:00130013
#12212:0000001300000000
#12312:1300000000130000
#1231b:0013000000000000
#12315:0000130000000013
#12318:0000001300001300
#1241b:1300000000130000
#12415:0013000000000023
#12418:00130023
#12412:0000001300000000
#07112:13131313
#0711b:13
#11812:13
#1181b:13
#11815:0000131300000000
#11818:0000000000132300
#0111b:13
#01118:0013000000130013
#01115:00130013
#01112:0000001300000000
#02612:0000000000000013
#0261b:0000001300000000
#05315:13000013
#05318:0013
#05418:13000013
#05415:0013
#05515:13
#05518:0013
#0651b:0000001300000000
#06515:2300000000130000
#06518:00000013
#06512:0000000000000013
#06618:0013000000000000
#06615:00130000
#0661b:0000001300000000
#06612:0013
#06614:00000024
#0661a:00000024
#08715:13000013
#08718:0013
#08818:13000013
#08815:0013
#08618:00000013
#08615:0023
#08912:13
#0891b:0013
#10318:0013
#10315:00000013
#10312:13
#1041b:13
#10415:0013
#10418:00000013
#10515:13
#10518:0013
#10218:00000013
#10215:0013
#10615:0013
#10618:00000013
#10818:0013
#1081b:00000013
#10812:13
#10815:00130000
#10712:13
#10718:0013
#04412:0024
#04415:23
#04418:00230000
#06918:23
#00412:0000000000240000
#11912:24
#1191a:24
#0701b:00000023
#03615:0023
#06712:24
#06718:24
#12512:00000000000000330000000000003300
#0185b:0000000000000053
#01852:0000006300000000
#0325b:53
#03255:53
#00158:53
#00255:63
#00358:53
#0035b:0000005300000000
#01455:0000006300000000
#01558:0000000000000053
#01755:0000006300000000
#01758:0000000000000053
#02258:0000005300000000
#02355:0000000000000063
#03355:0000000000000063
#03552:0000000000000053
#04052:63
#04058:63
#04158:0063
#04352:53
#04558:53
#04655:53
#04758:53
#04755:0063
#04858:53
#04952:53
#04958:0053
#05152:63
#0515b:0053
#05255:63
#0575b:63
#05755:0063
#05958:64
#07958:53
#08055:53
#08352:53
#08358:0053
#08555:53
#08552:0053
#0855b:53
#08558:0053
#09355:63
#0815b:53
#08152:0063
#09652:53
#09758:63
#09755:0053
#1015b:53
#10158:0053
#10152:63
#10155:0063
#0955b:53
#0995b:63
#09955:0063
#10958:53
#10955:63
#11752:54
#11758:54
#11452:0000006300000000
#11455:00000063
#06958:63
#00452:0000000000140000
#04455:13
#04458:00130000
#04452:0014
#02558:0000005300000000
#02555:0000000000000063
#02652:0000000000000063
#0265b:0000005300000000
#05355:63
#05458:63
#05555:63
#05558:0053
#05655:63
#0615a:14
#06352:14
#06458:0000005300000000
#08755:63
#08858:63
#08952:63
#0895b:0053
#10252:13
#1025b:13
#1045b:63
#10555:53
#10558:0063
#10352:63
#10752:53
#10758:0053
#1105b:13
#11052:13
#02855:0013
#0705b:00000013
#08255:13
#09058:13
#11552:13
#12052:0000000000140000
#1205a:0000000000140000
#03655:0013
#06752:54
#06758:54
#001380:1333330000000000
#0013b0:0000002300000000
#002350:1333330000000000
#002320:0000002300000000
#003380:1333330000332300
#0033b0:0000003300000000
#004320:1400000034240000
#014350:0000001300000000
#014320:00000023
#015380:0000000000000013
#0163b0:00230000
#017350:0000001300000000
#017320:00000023
#017380:0000000000000013
#0183b0:00230000
#018320:0000001300000000
#018350:00000023
#0183b0:0000000000000013
#020380:0023
#022380:0000001300000000
#0223b0:00000023
#023350:0000000000000013
#024320:00230000
#025380:0000001300000000
#0253b0:00000023
#025350:0000000000000013
#026320:00230000
#0263b0:0000001300000000
#026380:00000023
#026320:0000000000000013
#028350:0023
#0323b0:13
#032380:0023
#032351:13
#032321:0023
#033351:0000000000000013
#034321:00230000
#035321:0000000000000013
#036351:0023
#040321:13
#040351:0023
#040380:13
#0403b0:0023
#041380:0013
#0423b0:23
#043320:13
#044350:23
#045380:13
#0453b0:00230000
#046350:13
#046320:00230000
#047380:13
#0473b0:0000002300000000
#047350:0013
#047320:0000000000000023
#048380:13
#0483b0:00230000
#049320:13
#049350:00230000
#049380:0013
#0493b0:00000023
#051320:13
#051350:0000002300000000
#0513b0:0013
#051380:0000000000000023
#052350:13
#052320:00230000
#053350:13
#053320:00230000
#054380:13
#0543b0:00230000
#055350:13
#055320:0000002300000000
#055380:0013
#0553b0:0000000000000023
#056350:13
#056320:00230000
#0573b0:13
#057380:00230000
#057350:0013
#057320:00000023
#059380:14
#0603a0:24
#064380:0000001300000000
#0643b0:0000000000333333
#0653b0:23
#067320:14
#067340:00000024
#067381:14
#0673a1:00000024
#069381:13
#0703b1:3333003300332300
#079381:13
#0793b1:00230000
#080351:13
#080321:00230000
#0813b1:13
#081381:0000003323000000
#081320:0013
#081350:0000000000000033
#082350:23
#083320:13
#083350:00230000
#083380:0013
#0833b0:00000023
#085350:1300000000000033
#085320:0033
#086350:23
#0853b1:1300000000000033
#085381:0033
#0863b1:23
#087351:13
#087321:00230000
#088381:13
#0883b1:00230000
#089321:13
#089351:0000003323000000
#0893b0:0013
#089380:0000000000000033
#090380:23
#093350:13
#094320:23
#0953b0:13
#095380:00230000
#096320:13
#096350:00230000
#097380:13
#0973b0:0000003323000000
#097351:0013
#097321:0000000000000033
#098321:23
#0993b1:13
#099381:00230000
#099351:0013
#099321:00000023
#1013b1:1300000000000033
#101381:0000003333000000
#1023b1:23
#101320:1300000000000033
#101350:0000003333000000
#102320:23
#103320:13
#103350:00230000
#1043b0:13
#104380:00230000
#105350:13
#105320:0000003323000000
#105381:0013
#1053b1:0000000000000033
#1063b1:23
#107321:13
#107351:00230000
#107381:0013
#1073b1:00000023
#109381:13
#1103b1:23
#109350:13
#110320:23
#114320:0000001300000000
#114350:0000000000333300
#115320:23
#117320:14
#117340:00000024
#117381:14
#1173a1:00000024
#119321:14
#120321:0000000000240000
#1193a0:14
#1203a0:0000000000240000
#125320:13000000000000330000000000003300
#131320:22
