This file was generated by Ched 2.7.0.0.
#TITLE ""
#ARTIST ""
#DESIGNER ""
#DIFFICULTY 0
#PLAYLEVEL
#SONGID ""
#WAVE ""
#WAVEOFFSET 0
#JACKET ""
#REQUEST "ticks_per_beat 480"
#00002: 4
#BPM01: 210
#00008: 01
#TIL00: ""
#VOLUME: ""
#HISPEED 00
#MEASUREHS 00
#01817:0000001300000013
#01812:0000131300000013
#01816:00000013
#0331b:1300131300000000
#03317:0000000000001313
#03316:0000131300000000
#03312:1300000000000013
#06812:14000024
#06816:0000131300000000
#0681a:1400001400000000
#06817:0000000000132300
#00318:1333330000000000
#00315:0000001300330000
#0031b:00000013
#00312:13
#00515:0013000000001300
#00518:0000130000130013
#0051b:1300001300001300
#00512:1300001300000000
#0131b:23001313
#01316:00001313
#01312:23130000
#01317:00130000
#01310:41
#01414:13
#01412:0000131300000000
#01417:0000131300000000
#01419:13
#01416:0000000000131300
#01516:1300000000000013
#0151b:1300000000000013
#01517:0000001300000000
#01512:00130000
#01515:0000000000130000
#01518:00000013
#02616:0000001300000013
#0261b:0000131300000013
#02617:00000013
#03018:1300001300000013
#0301b:0013
#03012:13
#03217:13000013
#03216:0000130013000013
#0321b:0013
#03417:0000001300000000
#03412:00001313
#03415:0000000000130000
#03418:0000000000000013
#03416:00130000
#0341b:00001313
#03516:1300000000001313
#03517:0000131300000000
#03512:0000001300000000
#0351b:1300000000000013
#04018:00000013
#04015:0000000000000013
#04012:14
#0401a:14
#04016:0013
#0401b:0013
#0411b:13
#04116:0013
#04112:2300001313000000
#04215:0000001300000013
#04218:0000000013000013
#04212:0000000000130000
#0421b:0000000000130000
#04315:13
#04318:13
#04516:0013
#04512:23000013
#04517:00000013
#04514:00130000
#0451b:2300000013130000
#04510:41
#04617:0013
#0461b:13000013
#04616:00000013
#04619:00130000
#04612:1300000013130000
#04717:13
#04716:0013
#04712:13130000
#04719:0000000000000013
#04714:0000001300000000
#0471b:00000013
#04817:1300000000000013
#04815:00130000
#04812:0013
#04816:0000000000130000
#0481b:00001313
#04818:0000001300000000
#05112:13
#0511b:0013
#0511a:0000001300000000
#05113:0000000000000013
#05119:00130000
#05114:00000013
#05212:1300001300001300
#0521b:00131300
#05217:0000000000130000
#05216:0000000013000013
#06017:0000130000130000
#06016:0000001300000000
#06015:0000000000001313
#06018:00000000000000000000000000130013
#06012:23130000
#0601b:0000001300000000
#06114:00000013
#06117:00130000
#06112:2300131300000013
#0611b:2300001300130013
#06110:41
#07917:1313
#07912:13
#07914:00000013
#07919:00000013
#07916:00130000
#0791f:11
#08117:1313
#08112:1313
#08216:0013
#0821b:0013
#08212:00000013
#08217:00000013
#08512:1300000000000013
#0851b:0013
#08517:00130000
#0921b:1313
#09216:1313
#09217:00130000
#09212:00130000
#08617:00000013
#08612:13000013
#08616:0023
#0861b:0023
#07816:12000013
#0781b:00000013
#07812:0013
#07817:0013
#07819:0012000000000000
#0781c:00220000
#09118:0013
#09115:23
#01717:0000131300000000
#01716:00000013
#0171b:0000000000000013
#01712:1300131300000013
#02012:12
#02016:0012
#02014:00120000
#02018:00000012
#0281c:12120000
#02812:13
#02915:1300001300000013
#02912:0013
#02910:41
#0311b:13130000
#03116:0000001300001300
#03112:1313
#03117:0013
#03815:0000001300000013
#03816:13
#03812:0013
#0381b:1300000000000013
#03912:13130000
#03917:0000001300000000
#0391b:1313
#03916:0013
#03918:00000013
#03915:0000000000000013
#04916:13
#0491b:00130000
#04917:0013
#04912:00000013
#04915:0000000000130000
#05012:13000013
#05017:00130000
#0501b:00131300
#05016:00000013
#06319:00000013
#06316:0000130000130000
#06317:0000001300000013
#06312:2300001300000013
#0631b:23130000
#06519:00000013
#06516:00130000
#0651b:2300131300000013
#06512:0000001300130013
#06515:23
#07112:12120000
#0711c:0012000000000000
#07115:0000001200000000
#07118:0000000012000012
#0711b:0000000000121200
#07212:0012000012001200
#07215:1200120000120000
#07218:0000001200000000
#0721b:0012
#0721c:00000012
#07219:0000000000000012
#07316:12
#0731c:0012000000000000
#07312:0000121200000000
#07315:0012
#07318:0000000000120000
#0731b:0000000000001212
#07415:0012000000000000
#07418:1200001200000000
#07412:00120000
#0741c:00000022
#08412:13000013
#08417:00130000
#0841b:00131300
#08416:00000013
#08716:13
#0871b:1313
#08719:00000013
#08714:00000013
#08712:00130000
#08916:1313
#0891b:1313
#09015:0013
#0901b:0013
#09012:00000013
#09018:00000013
#1181a:14000024
#11817:0000001300000000
#11812:1400001400000000
#11816:0000000000132300
#11815:0013130000000000
#11818:00000013000000000000000000000000
#00415:13
#00418:13
#00419:0000000000250000
#00412:0000000000250000
#00618:0013000000001300
#00615:0000130000130013
#00612:1300001300001300
#0061b:1300001300000000
#00715:0013000000001300
#00718:0000130000130013
#0071b:1300001300001300
#00712:1300001300000000
#0081b:13000013
#00815:0000000000000013
#00818:00000000000000000000000000000013
#0121b:0013130000130000
#01215:00000000000013000000000000130013
#01218:13000000000000130000000013001300
#01212:0000000013130000
#01617:00130000
#01612:0013
#01618:00000013
#0161b:0013
#02112:24001313
#02117:00001313
#0211b:00130000
#02116:00130000
#02219:13
#0221b:0000131300000000
#02216:0000131300000000
#02214:13
#02217:0000000000131300
#02317:1300000000000013
#02312:1300000000000013
#02316:0000001300000000
#0231b:00130000
#02318:0000000000130000
#02315:00000013
#02516:0000131300000000
#02517:00000013
#02512:0000000000000013
#0251b:1300131300000013
#02416:00130000
#0241b:0013
#02415:00000013
#02412:0013
#03717:13
#03718:0000001300000013
#0371b:0013
#03712:13
#05912:00140012
#05916:0012
#05914:0000000000120000
#0591b:13
#0621b:00131300
#06217:0000001300000000
#06218:0000000000001313
#06215:00000000000000000000000000130013
#06412:0000130013000013
#06415:00000013
#06416:0000001300000000
#0641b:00000000000000000000130000130000
#06418:00000000000000000000000000000013
#06417:0013
#06612:00131300
#06616:0000001300000000
#06613:00000024
#06619:00000024
#06915:0000000000000013
#06918:00000000000000000000000000000013
#06916:24
#0701b:1313000000000000
#07012:1313000000002400
#07014:0000001300000000
#07019:0000001300000000
#07015:0000000000130000
#07018:0000000000130000
#0701a:00000024
#08316:13
#0831b:13000013
#08317:0013
#08312:00131300
#08318:0000000000000013
#08315:0000001300000000
#09517:13
#09516:0013
#09515:00000013
#0951b:00000013
#09514:00130000
#09518:0000000000130000
#09512:2300000000000013
#0951f:21
#09616:13
#09617:0013
#09618:00000013
#09612:00000013
#0961b:1300000000000013
#09619:00130000
#09615:0000000000130000
#09718:13
#0971b:0013
#09712:1300130013000013
#09715:0000001300001300
#09710:41
#09818:1300001300000000
#09815:13130000
#09812:0013
#09816:0000000000130000
#0981b:00001313
#09817:0000000000000013
#11017:0000130000130000
#11018:0000000000001313
#11015:00000000000000000000000000130013
#1101b:2300001300000000
#11012:00130000
#11016:0000001300000000
#11215:0000130000001313
#11218:00000000000013000000000000130013
#11212:0013000013000000
#1121b:00131300
#09916:13
#09919:00130000
#09917:0013
#09912:00000013
#09915:0000000000130000
#10012:13000013
#10017:00130000
#1001b:00131300
#10016:00000013
#1021b:0013
#10217:0000000000130000
#10212:0000001300001300
#10216:0000000013000013
#10215:13
#10218:13130000
#10317:13000013
#10316:0013
#10312:23000013
#10314:0000130000130000
#10319:0000000000130013
#10512:13
#10515:0013
#10518:0000001300001300
#1051b:1300130013000013
#10612:1313
#10618:13130000
#10616:0000000000130000
#1061b:00001313
#10617:0000000000000013
#10615:0000001300000000
#10716:13
#1071b:00130000
#10717:0013
#10712:00000013
#10715:0000000000130000
#10812:13000013
#10817:00130000
#1081b:00131300
#10816:00000013
#11112:23130000
#1111b:2300001300001300
#11117:0000130000000013
#11116:0000001300000000
#11317:00130000
#11316:0000001300000013
#1131b:2300001300000000
#11312:23130013
#11516:0000130000000013
#11512:2300001300001300
#11517:0000001300000000
#1151b:23130000
#1141b:0013000013000000
#11418:0000130000001313
#11415:00000000000013000000000000130013
#11412:00130000
#09417:0013
#09416:00000013
#09412:0013
#0941b:00000013
#1161b:0013000013000000
#11618:00130000
#11615:0000001300000000
#11612:00131325
#11619:00000025
#12115:0000000000130000
#1211b:1300001300001300
#12118:0000000000000013
#12112:13000013
#12117:0013000000000000
#12119:00130000
#12218:0000000000130000
#12212:1300001300001300
#12215:0000000000000013
#1221b:13000013
#12216:0013000000000000
#12214:00130000
#12315:0000000000130000
#1231b:1300001300001300
#12318:0000000000000013
#12312:13000013
#12317:0013000000000000
#12319:00130000
#12418:0000000000132626
#12412:1300001300000000
#1241b:13
#12416:00001300000000000000000000220022
#12414:00130000
#00112:1300000000131300
#00117:00000013
#00116:0000001300000000
#0011b:0033330000000000
#00215:00001313
#00218:0000000000130000
#0021b:13000013
#00217:0000001300000000
#00212:0033330000000000
#0561b:0013
#05617:0000000000130000
#05612:00001313
#05616:1300000000000013
#05615:0000001300000000
#05618:00130000
#05717:13
#05712:00130000
#05716:0013
#0571b:00000013
#05718:0000000000130000
#0581b:13000013
#05816:00130000
#05812:00131300
#05817:00000013
#09317:13
#09312:13
#09316:0013
#0931b:0013
#10416:13000013
#10417:0013
#1041b:13000013
#10419:0000130000130000
#10414:0000000000130013
#11912:00000000000000000000000000140000
#1191a:00000000000000000000000000140000
#11918:24
#11914:24
#0751c:12120000
#07512:0012000000000000
#07519:0000001200000000
#07516:0000000012000012
#07513:0000000000121200
#07510:41
#0761c:0012000012001200
#07619:1200120000120000
#07616:0000001200000000
#07613:0012
#07612:00000012
#07615:0000000000000012
#07718:12
#07712:0012000000000000
#0771c:0000121200000000
#07719:0012
#07716:0000000000120000
#07713:0000000000001212
#08016:1313
#0801b:13
#08019:00000013
#08014:00000013
#08017:00130000
#08817:13
#08812:1313
#08814:00000013
#08819:00000013
#0881b:00130000
#05317:0013
#0531b:23000013
#05316:00000013
#05319:00130000
#05312:2300000013130000
#05416:0013
#05412:13000013
#05417:00000013
#05414:00130000
#0541b:1300000013130000
#05516:13
#05517:0013
#0551b:13130000
#05514:0000000000000013
#05519:0000001300000000
#05512:00000013
#10115:13
#10112:0013
#1011b:0000130013000013
#10118:0000001300001300
#1091a:0000140000120000
#10918:0012
#1091c:00000012
#10912:13
#00918:0013000000001300
#00915:0000130000130013
#00912:1300001300001300
#0091b:1300001300000000
#01015:0013000000001300
#01018:0000130000130013
#0101b:1300001300001300
#01012:1300001300000000
#01118:0013000000001300
#01115:0000130000130013
#01112:1300001300001300
#0111b:1300001300000000
#04412:25252500
#04419:25252500
#0361a:0024
#03612:0024
#06712:24
#0671a:24
#12518:00000000000000360000000000003600
#01857:0000005300000053
#06856:0000003300000000
#0685a:0000004400000000
#06857:00000043
#06852:00000034
#00358:53
#00355:0000006300000000
#0035b:00000063
#01457:0000005300000000
#01556:0000000000000063
#0155b:63
#01557:0000002300000000
#02656:0000006300000063
#03357:0000000000000053
#03356:0000006300000000
#03556:6300000000000053
#03557:0000005300000000
#0415b:63
#04156:0063
#04152:0053
#04355:53
#04358:63
#04757:53
#04756:0063
#04752:13
#0475b:0013
#04857:5300000000000023
#04852:1363
#04856:0000000000230000
#0485b:00000053
#05152:63
#0515b:4353
#05156:0013
#05252:53000063
#0525b:0053
#05257:1300000000230000
#05256:0000000000000023
#07957:53
#07952:53
#07956:00230000
#08157:6363
#08152:6363
#08552:53
#0855b:0053
#08557:00230000
#01757:0000005300000000
#0175b:0000000000000023
#02955:63
#02952:0033
#02958:0043
#03152:53
#03156:00000063
#03157:0053
#03256:0063
#03257:53
#03252:13
#0395b:63
#03956:0063
#04052:34
#0405a:44
#04056:0063
#04956:63
#04957:0053
#05052:63
#05057:00230000
#0505b:0053
#05056:00000023
#06056:0000006300000000
#06152:3300005300000000
#0615b:0000000000000063
#06357:0000006300000000
#06352:0000000000000053
#0635b:43
#0655b:0000006300000000
#06552:0000000000000053
#06555:33
#08452:63
#08457:00230000
#0845b:0053
#08456:00000023
#08756:63
#0875b:63
#08752:00230000
#08956:5353
#0895b:5353
#11857:0000004300000000
#11852:0000003400000000
#11856:00000033
#1185a:00000044
#00455:53
#00458:63
#00459:0000000000150000
#00452:0000000000150000
#00552:0000005300000000
#0065b:0000006300000000
#00752:0000005300000000
#01652:0053
#01658:00000063
#02256:0000006300000000
#02357:0000000000000053
#02352:53
#02356:0000002300000000
#02556:0000006300000000
#02552:0000000000000023
#0245b:0063
#02455:00000053
#03058:53
#0305b:0043
#03055:0033
#03757:53
#0375b:0043
#03755:0033
#03856:63
#03852:0033
#03858:0043
#08356:63
#0835b:63000053
#08357:0053
#08352:00535300
#08355:0000002300000000
#08358:0000000000000023
#08652:13
#08657:13
#09557:53
#09552:33
#09656:53
#0965b:43
#09758:53
#0975b:0053
#09752:1313
#09858:53
#09852:0063
#09856:0000000000230000
#0985b:00000053
#09857:0000000000000023
#09855:13
#09956:63
#09957:0053
#10052:63
#10057:00230000
#1005b:0053
#10056:00000023
#1025b:0053
#10257:0000000000230000
#10252:00000063
#10256:0000000000000023
#10255:63
#10258:13
#10357:53
#10352:33
#10552:63
#10555:0053
#1055b:1313
#10652:6363
#10656:0000000000230000
#1065b:00000053
#10657:0000000000000023
#10658:13
#10756:63
#10757:0053
#10852:63
#10857:00230000
#1085b:0053
#10856:00000023
#1115b:4300006300000000
#11157:0000000000000023
#11356:0000005300000053
#11352:33
#11552:0000005300000000
#1155b:43
#11556:0000000000000023
#1215b:0000006300000000
#12152:53
#12252:0000005300000000
#1225b:63
#1235b:0000006300000000
#12352:53
#12452:0000005300000000
#1245b:63
#06956:64
#04452:15151500
#04459:15151500
#11958:64
#11954:54
#1195a:00000000000000000000000000240000
#11952:00000000000000000000000000240000
#06752:54
#0675a:54
#11652:00000035
#11659:00000045
#02852:2318
#0825b:13
#08256:13
#07452:00000032
#09052:13
#09057:13
#03652:0014
#0365a:0014
#0565b:1353
#05657:0000000000230000
#05652:00000063
#05656:6300000000000023
#0595b:53
#05952:33
#05757:53
#05756:0063
#0585b:53
#05856:00230000
#05852:0063
#05857:00000023
#0625b:0013
#06652:0013
#0925b:0053
#09256:0053
#09357:53
#09352:53
#0935b:0023
#09356:0023
#10456:63
#1045b:43
#12054:0000000000140000
#12058:0000000000140000
#0705a:00000014
#07052:00000014
#08056:63
#0805b:63
#08057:00230000
#08857:53
#08852:53
#0885b:00230000
#05352:33
#0545b:43
#0455b:43
#04652:33
#05556:63
#05557:0053
#0555b:13
#05552:0013
#10155:63
#10152:0063
#1015b:1313
#11056:1300006300000000
#1105b:13
#10952:63
#0095b:0000006300000000
#01052:0000005300000000
#0115b:0000006300000000
#001370:13
#0013b0:0033332300000000
#002360:13
#002320:0033332300000000
#003380:1333330000000000
#0033b0:0000002300000000
#003351:0000001300330000
#003321:00000023
#0033b0:00000013
#004380:33
#004390:0025
#004351:13
#004321:0025
#005321:0000001300000000
#005351:0000000000230000
#0063b1:0000001300000000
#006381:0000000000230000
#007321:0000001300000000
#007351:0000000000230000
#008321:13230000
#008351:0033000000000000
#008390:00132300
#008360:0000003300000000
#008341:00001323
#008371:0000000000330000
#0093b1:0000001300000000
#009381:0000000000230000
#010321:0000001300000000
#010351:0000000000230000
#0113b1:0000001300000000
#011381:0000000000230000
#012321:13230000
#012351:0033000000000000
#014371:0000001300000000
#0143b1:00000023
#0153b1:13
#015371:00230000
#015371:0000001300000000
#0153b1:0000000000230000
#015361:0000000000000013
#016321:00230000
#016321:0013
#016351:00000023
#016380:00000013
#0173b0:23
#017370:0000001300000000
#0173b0:00000023
#0173b0:0000000000000013
#018370:00230000
#018370:0000001300000000
#0183b0:00000023
#018370:0000000000000013
#0213a0:24
#022360:0000001300000000
#022320:00000023
#023320:13
#023360:00230000
#023360:0000001300000000
#023320:0000000000230000
#023370:0000000000000013
#0243b0:00230000
#0243b0:0013
#024380:00000023
#024351:00000013
#025321:23
#025361:0000001300000000
#025321:00000023
#025321:0000000000000013
#026361:00230000
#026361:0000001300000000
#026321:00000023
#026361:0000000000000013
#028321:5328
#0283c0:0012
#029380:26
#029351:13
#029321:00230000
#0293b0:00130000
#029380:0000003323000000
#030380:13
#0303b0:00230000
#030321:00130000
#030351:0000003323000000
#031321:13
#031361:00230000
#031371:0013
#0313b1:00000023
#031360:00000013
#032320:23
#032371:13
#0323b1:00230000
#032361:0013
#032321:00000023
#033361:0000001300000000
#033321:00000023
#033371:0000000000000013
#0343b1:00230000
#035361:13
#035321:00230000
#035371:0000001300000000
#0353b1:00000023
#035361:0000000000000013
#036321:0024
#037371:13
#0373b1:00230000
#037320:00130000
#037350:0000003323000000
#038360:13
#038320:00230000
#0383b1:00130000
#038381:0000003323000000
#0393b1:13
#039371:00230000
#039361:0013
#039321:00000023
#040361:0013
#040321:00000023
#0413b1:13
#041361:0000003333000000
#0423b1:23
#041320:0013
#042370:23
#043350:13
#044320:25
#043381:13
#044391:25
#047371:13
#0473b1:0023
#047360:0013
#048320:23
#048371:13
#0483b1:00230000
#048321:00001323
#048361:0000000000530000
#0483b0:00000013
#048370:0000000000000053
#0493b0:23
#049361:13
#049321:0023
#049370:0013
#0503b0:23
#050321:1323
#050371:00530000
#0503b0:0013
#050360:00000053
#0513b0:23
#051321:13
#051361:0023
#0513b0:0013
#052370:23
#052321:13
#052361:00230000
#0523b1:00001323
#052371:0000000000530000
#052320:00000013
#052360:0000000000000053
#053320:23
#055360:13
#055320:0023
#055371:0013
#0563b1:23
#056360:13
#056320:00230000
#0563b0:00001323
#056370:0000000000530000
#056321:00000013
#056361:0000000000000053
#057321:23
#057370:13
#0573b0:0023
#057361:0013
#058321:23
#0583b0:1323
#058360:00530000
#058321:0013
#058371:00000053
#059321:23
#0593b0:13
#060370:23
#060360:0000001300000000
#060320:0000000000230000
#061320:0000001300000000
#061360:0000000000230000
#0613b0:0000000000000013
#062370:0023000000000000
#062321:0013003300000000
#062361:00332300
#063371:0000001300000000
#0633b1:0000000000230000
#063321:0000000000000013
#064361:0023000000000000
#0643b0:0013002300000000
#064370:00330000
#0653b0:0000001300000000
#065370:0000000000230000
#065320:0000000000000013
#066360:0023000000000000
#0663b1:0013003300000000
#066371:00332300
#067321:14
#067361:00000022
#0673a0:14
#067380:00000022
#069360:14
#069320:0000002c
#074320:00001222
#074360:0000000000320000
#079370:13
#0793b0:00230000
#079321:1323
#079361:00530000
#080361:13
#080321:00230000
#0803b0:1323
#080370:00530000
#081370:13
#0813b0:0000002300000000
#081321:13
#081361:0000002300000000
#081371:0013
#0813b1:0000000000000033
#0823b1:23
#081320:0013
#081360:0000000000000033
#082360:23
#083360:13000023
#083320:00333300
#083350:0000005300000000
#0833b1:13
#083371:00230000
#083371:0013
#0833b1:00000033
#083381:0000000000000053
#0843b1:23
#084320:1323
#084370:00530000
#0843b1:0013
#084361:00000053
#0853b1:23
#085320:1323
#085370:00530000
#0853b1:0013
#085371:0000000000000033
#086371:23
#087361:1323
#087321:00530000
#0873b0:13
#087370:00230000
#088371:1323
#0883b1:00530000
#088320:13
#088360:00230000
#089361:13
#089321:0000002300000000
#0893b0:13
#089370:0000002300000000
#089360:0013
#089320:0000000000000033
#090320:23
#0893b1:0013
#089371:0000000000000033
#090371:23
#0923b1:0013
#092371:0000000000000023
#092360:0013
#092320:0000000000000023
#093320:13
#093360:0053
#094320:23
#093371:13
#0933b1:0053
#094371:23
#095371:13
#0953b1:0023
#096361:13
#096321:0023
#097381:13
#0973b1:0000532300000000
#0973b1:0013
#097381:0000000000005323
#098381:13
#0983b1:00230000
#098321:00001323
#098361:0000000000530000
#0983b0:00000013
#098370:0000000000000053
#0993b0:23
#099361:13
#099321:0023
#099370:0013
#1003b0:23
#100321:1323
#100371:00530000
#1003b0:0013
#100360:00000053
#1013b0:23
#101351:13
#101321:0000532300000000
#101321:0013
#101351:0000000000005323
#102351:13
#102321:00230000
#1023b1:00001323
#102371:0000000000530000
#102320:00000013
#102360:0000000000000053
#103320:23
#103371:13
#1033b1:0023
#104361:13
#104321:0023
#105321:13
#105351:0000532300000000
#105351:0013
#105321:0000000000005323
#106321:13
#106351:00230000
#106321:00001323
#106361:0000000000530000
#1063b0:00000013
#106370:0000000000000053
#1073b0:23
#107361:13
#107321:0023
#107370:0013
#1083b0:23
#108321:1323
#108371:00530000
#1083b0:0013
#108360:00000053
#1093b0:23
#109321:13
#110361:23
#110361:0000001300000000
#110321:0000000000230000
#1113b1:0000001300000000
#111371:0000000000230000
#111320:0000000000130023
#111360:00000033
#111371:0000000000000013
#1123b1:0023000000000000
#113361:0000001300000000
#113321:0000000000230000
#1133b0:0000000000130023
#113370:00000033
#113361:0000000000000013
#114321:0023000000000000
#114321:00001323
#114361:0000000000330000
#115321:0000001300000000
#115361:0000000000230000
#1153b0:0000000000130023
#115370:00000033
#115361:0000000000000013
#116321:0023000000000000
#117381:13000026
#117350:13
#117320:00000026
#119380:14
#1193a0:00000000000000000000000000540000
#120380:0000000000240000
#119341:14
#119321:00000000000000000000000000540000
#120341:0000000000240000
#121321:13
#121351:0000002300000000
#1213b0:0000001300000000
#121380:0000000000230000
#1223b0:13
#122380:0000002300000000
#122321:0000001300000000
#122351:0000000000230000
#123321:13
#123351:0000002300000000
#1233b0:0000001300000000
#123380:0000000000230000
#1243b0:13
#124380:0000002300000000
#124321:0000001300000000
#124351:0000000000230000
#125381:16000000000000360000000000003600
#1313a1:21
