This file was generated by Ched 2.7.0.0.
#TITLE ""
#ARTIST ""
#DESIGNER ""
#DIFFICULTY 0
#PLAYLEVEL
#SONGID ""
#WAVE ""
#WAVEOFFSET 0
#JACKET ""
#REQUEST "ticks_per_beat 480"
#00002: 4
#BPM01: 210
#00008: 01
#TIL00: ""
#VOLUME: ""
#HISPEED 00
#MEASUREHS 00
#0031a:14
#00316:0014
#00712:1414
#00812:1414
#00818:00140000
#0091a:1414
#0151a:14
#01514:0014
#01712:14
#01718:0014
#02112:14
#02118:0014
#05312:0014
#0531a:14
#05318:00000014
#07215:0014
#07214:14
#0011a:14
#00116:0014
#0101a:1414
#01014:00140000
#01112:1414
#01212:1414
#01218:00140000
#02912:1414
#02918:00140000
#02910:41
#0301a:1414
#03014:00140000
#03114:1414
#03118:00140014
#03518:1414
#03514:00140014
#05412:14
#0541a:0014
#05414:00000014
#06412:1414
#06418:14
#0661a:14
#06612:14
#06614:0014
#0751a:14
#07519:0014
#07510:41
#08216:0014
#1231a:1414
#1241a:1414
#12414:00140000
#12218:00140000
#12212:1414
#00212:14
#00216:0014
#0051a:2414
#0061a:1414
#00614:00140000
#01418:14
#01412:0014
#01814:14
#0181a:0014
#01914:14
#02718:14
#03214:14
#0331a:1414
#03314:00140000
#03412:1414
#03418:00140000
#03618:14
#03712:1414
#03718:00140000
#0381a:1414
#03814:00140000
#03914:1414
#03918:00140014
#04014:14
#04114:14
#0411a:14
#04212:14
#04218:14
#04314:14
#0431a:14
#04512:0014
#04518:00000014
#0451a:24
#04510:41
#04612:14
#0461a:0014
#04614:00000014
#0471a:14
#04718:0014
#04818:00000014
#04812:0014
#04912:14
#0491a:0014
#05018:00140014
#05014:1414
#05112:14
#05114:0014
#0521a:0014
#05214:00000014
#0551a:14
#05518:0014
#05618:00000014
#05612:0014
#05712:14
#0571a:0014
#05818:00140014
#05814:1414
#05914:14
#06212:1414
#06218:14
#0611a:2414
#06114:24
#06110:41
#06314:14
#0631a:1414
#06518:0014
#06512:24
#0651a:24
#06718:14
#06812:14
#06818:00140000
#06814:0014
#0681a:00000014
#07113:0014
#07418:14
#07419:0014
#07912:14
#0791f:11
#0801a:14
#08616:0014
#08912:14
#08914:0014
#08714:14
#08818:14
#09012:0014
#0901a:0014
#1141a:14
#11414:1414
#11613:1414
#11619:1414
#0951a:0014
#09514:00000014
#09512:24
#0951f:21
#0961a:14
#09612:0014
#09618:00000014
#09714:14
#09712:0014
#09710:41
#09814:00000014
#0981a:0014
#0991a:14
#09912:0014
#10012:00140000
#10018:14
#1001a:0014
#10014:00000014
#1121a:14
#11214:1414
#11318:1414
#11312:14
#11512:2414
#1151a:2414
#11118:2414
#11112:24
#12112:1414
#1181a:14
#11814:00140000
#11818:0014
#11812:00000024
#00412:14
#01314:0014
#0131a:24
#01310:41
#02312:14
#02318:0014
#0251a:14
#02514:0014
#02214:14
#0221a:0014
#02618:14
#02612:0014
#07316:14
#07317:0014
#07617:0014
#07618:14
#07814:14
#07813:0014
#07716:14
#07715:0014
#08112:14
#08114:0014
#0831a:14
#08412:14
#0851a:14
#08518:0014
#10118:14
#1011a:0014
#10218:00000014
#10212:0014
#10312:14
#1031a:0014
#10314:00000014
#1041a:14
#10412:0014
#10418:00000014
#10514:14
#10512:0014
#10614:00000014
#1061a:0014
#1071a:14
#10712:0014
#10812:00140000
#10818:14
#1081a:0014
#10814:00000014
#10918:14
#1091a:0014
#04412:24242400
#0441a:24242400
#06914:24
#09112:24
#0911a:24
#09213:24
#09219:24
#09316:24
#11918:24
#12514:00000000000000340000000000003400
#01954:54
#02758:54
#03254:64
#03658:64
#04054:64
#0475a:54
#04758:0054
#05152:64
#05154:0054
#0555a:54
#05558:0054
#05954:64
#06758:54
#07952:64
#0805a:54
#08952:64
#08954:0054
#08754:54
#08858:64
#09754:64
#09752:0054
#06954:54
#11958:64
#0285a:0014
#0485a:14
#05252:14
#0565a:14
#06052:14
#07152:14
#09854:14
#1205a:0000000000140000
#08152:64
#08154:0054
#0835a:54
#08452:64
#0855a:54
#08558:0064
#10158:54
#1015a:0064
#10258:14
#10554:64
#10552:0054
#10958:54
#1095a:0064
#10654:14
#11058:14
#016380:1424
#019340:14
#020320:0024
#024340:1424
#027380:14
#0283a0:0024
#032340:14
#032320:0024
#036380:14
#0363a0:0024
#040340:14
#040320:0024
#0473a0:14
#047380:0034
#0483a0:24
#051320:14
#051340:0034
#052320:24
#0553a0:14
#055380:0034
#0563a0:24
#059340:14
#060320:24
#067380:14
#0673a0:0024
#069340:14
#071320:24
#079320:14
#079340:0024
#0803a0:14
#080380:0024
#081320:14
#081340:0034
#082320:24
#0833a0:14
#083380:0024
#084320:14
#084340:0024
#0853a0:14
#085380:0034
#0863a0:24
#087340:14
#087320:0024
#088380:14
#0883a0:0024
#089320:14
#089340:0034
#090320:24
#093360:14
#094360:24
#097340:14
#097320:0034
#098340:24
#101380:14
#1013a0:0034
#102380:24
#105340:14
#105320:0034
#106340:24
#109380:14
#1093a0:0034
#110380:24
#117320:1424
#1173a1:1424
#119381:14
#1203a1:0000000000240000
#125341:14000000000000340000000000003400
#131321:24
