This file was generated by Ched 2.7.0.0.
#TITLE ""
#ARTIST ""
#DESIGNER ""
#DIFFICULTY 0
#PLAYLEVEL
#SONGID ""
#WAVE ""
#WAVEOFFSET 0
#JACKET ""
#REQUEST "ticks_per_beat 480"
#00002: 4
#BPM01: 132
#00008: 01
#TIL00: ""
#VOLUME: ""
#HISPEED 00
#MEASUREHS 00
#0351f:11
#00318:14
#00414:14
#0051a:14
#00612:14
#00610:41
#00718:14
#01918:16
#02012:16
#02112:16
#02218:16
#02318:16
#02412:16
#02512:16
#0261a:14
#02610:41
#02712:14
#02818:14
#02914:14
#04114:14
#04312:0016
#0431f:21
#04318:26
#04418:16
#04412:0016
#04518:16
#04512:0016
#04510:41
#04712:1616
#04818:1616
#05118:0016
#05112:26
#05212:16
#05218:0016
#05312:16
#05318:0016
#05518:1616
#05510:41
#05612:1616
#05912:0016
#05918:26
#06312:16
#06318:0016
#06412:16
#06418:0016
#06018:16
#06012:0016
#06118:16
#06112:0016
#01818:26
#01610:41
#06510:41
#000320:14
#002320:24
#008340:14000000000000003400003400002400
#0103a0:14
#0113a0:24
#012320:14
#013320:24
#014380:14
#015380:24
#016340:14
#017340:24
#0303a0:14
#0313a0:24
#032320:14
#033320:34
#034320:24
#0353a0:14
#036380:24
#037320:14
#038340:24
#039380:14
#0403a0:24
#046380:1626
#049320:1626
#050380:1626
#054320:1626
#057380:1626
#058320:1626
#062380:1626
#065320:1636
#066320:36
#067320:26
#0693a0:14
#0703a0:24
#071340:14
#072340:24
#073380:14
#074380:24
#075320:14
#076320:24
#0773a0:14
#0793a0:24
