This file was generated by Ched 2.7.0.0.
#TITLE ""
#ARTIST ""
#DESIGNER ""
#DIFFICULTY 0
#PLAYLEVEL
#SONGID ""
#WAVE ""
#WAVEOFFSET 0
#JACKET ""
#REQUEST "ticks_per_beat 480"
#00002: 4
#BPM01: 132
#00008: 01
#TIL00: ""
#VOLUME: ""
#HISPEED 00
#MEASUREHS 00
#0351f:11
#03516:0000001200000000
#03512:12000012
#03518:12
#0351a:00000012000000000000000000001200
#03514:00000012000000000000000000000000
#0351c:0000001200000000
#01812:13000000000000000000001300000000
#01816:0000000013000013
#01817:23000000000000000000002300000000
#0181b:0000000023000023
#02016:13000000000000000000001300000000
#02012:0000000013000013
#0201b:23000000000000000000002300000000
#02017:0000000023000023
#02212:13000000000000000000001300000000
#02215:0000000013000013
#0221b:23000000000000000000002300000000
#02218:0000000023000023
#02415:13000000000000000000001300000000
#02412:0000000013000013
#0241b:0000000023000023
#02418:23000000000000000000002300000000
#02518:0000001300000000
#02515:0000001300000000
#02512:000000000000000000000000000000000000000000000000330033133300330033003300000000000000000000000000
#0251b:000000000000000000000000000000000000000000000000330033133300330033003300000000000000000000000000
#02312:0013
#02312:0013
#0231b:0013
#02315:0000000000130000
#02318:0000000000130000
#01912:00000000001300000000000000000000
#01917:00000000001300000000000000000000
#0211b:00000013000000000000000000000000
#02116:00000013000000000000000000000000
#00217:00130000
#00212:23130000
#00216:00000000000000001300000000000013
#0021b:2300000000130000
#00316:00130000
#0031b:00130000
#00317:00000000000000001300000000000013
#00312:0000000000130000
#00612:00130000
#00617:00130000
#0061b:00000000000000001300000000000013
#00616:0000000000130000
#00619:0000001300000000
#00610:41
#00417:00130000
#00412:00130000
#00416:00000000000000001300000000000013
#0041b:0000000000130000
#0051b:13000000000000001300001300000000
#00512:00001300000000000013001300000000
#00518:00130000
#00515:0000001300000000
#0071b:0013000013000000
#00716:0013000000000000
#00714:00130000
#00712:0000001313000000
#00717:0000001300000000
#00719:00130000
#00718:00000000000000000000001300000000
#00715:00000000000000000000001300000000
#00818:00001300000013000000001400000000
#00815:00130000
#00812:0000000014000024
#0081a:0000000024000024
#00814:00000000000000000000002400000000
#00915:00130000
#00918:00130000
#01012:1300001300001300
#01016:00000013000000000000000000000000
#0101b:00000000000000000013000000001300
#01017:0000001300000000
#0121b:1300001300001300
#01217:00000013000000000000000000000000
#01212:00000000000000000013000000001300
#01216:0000001300000000
#01116:1300000000001414
#01112:00000013000013000000000000000000
#01117:0000001300000000
#01317:13
#0131b:00000013000013000000000000000000
#01316:0000001300001414
#0141b:13131313
#01418:0013000000130000
#01415:0000001300000013
#01412:23131313
#0151b:13131313
#01518:0013000000130000
#01515:0000001300000013
#01512:13131313
#0161b:1313000000000000
#01612:00130013000000000000000000000000
#0161a:0000131300000000
#01619:0000000013130000
#01618:0000000000001313
#01615:00000000000000000000000000130013
#01614:00000000000000000013001300000000
#01613:00000000001300130000000000000000
#01610:41
#02612:1313
#02616:0000000000000013
#0261b:2300130000001313
#02610:41
#02717:0013000000000000
#0271b:00000000001300000000000013000000
#02712:0013000000001300
#02716:00000000001300000000000000000000
#02714:0000000000000013
#02817:0000130000001313
#02812:0000000000000013
#02816:1313
#0281b:23
#02916:0013130000000000
#0291b:0013130000001300
#02912:00000013
#02919:0000000000000013
#03017:13
#0301b:0000130000001313
#03016:0000130000000013
#03012:2313
#03112:0013000013000013
#03117:0013000000000000
#0311b:0000001313000013
#03118:0000000000130000
#03115:0000000000130000
#03218:00130000000000000000000000000000
#03215:00130000000000000000000000000000
#03212:0000001300130013
#03216:00001313
#03217:0000002300230023
#0321b:00002323
#03316:00000000001300000000000000000000
#0331b:00000000001300000000000000000000
#03712:0000001200000000
#03716:12000012
#0371c:12
#03714:00000012000000000000000000000000
#0371a:00000012000000000000000000001200
#03718:0000001200000000
#0381c:0000001200000000
#03818:12
#03812:12
#0381a:00000012000000000000000000000000
#03814:00000012000000000000000000000000
#03816:0000001200000000
#03618:0000001200000000
#0361c:12000012
#03616:12
#03614:00000012000000000000000000000000
#0361a:00000012000000000000000000000000
#03612:0000001200000000
#03912:12
#03918:12
#04016:12
#04012:0012
#0401c:12
#04018:0012
#03417:12
#04316:1300001300001300
#04317:00000013000000000013000000000000
#04312:00000013000000000000000000000000
#0431b:2300001300001300
#04314:0000000000000013
#0431f:21
#04417:1300001300000000
#04412:1300001300000000
#04416:00000013000000000000000013000000
#0441b:00000013000000000000000013000000
#04612:00000013000000000000000013000000
#04614:0000000000000013
#04617:00000013000000000000000013000000
#04619:0000000000000013
#04616:1300001300000000
#0461b:1300001300000000
#04716:13000000000000000013000013000000
#04712:00000013000013000000000000000000
#0471b:00000013
#04714:0000000000000013
#04719:0000000000000013
#04817:13000000000000000013000000000000
#0481b:00000013000013000000000013000000
#04812:0000000000001313
#04816:0000000000000024
#05012:00000014000000000000000026000000
#05016:00000014000000000000140000000000
#05018:00000026
#05116:00000013000000000000000000000000
#0511b:00000000000000000013000000001300
#05117:00000013
#05112:23000013
#05212:1300001300001300
#05214:0000000000000013
#05217:0000001300001300
#05216:00000013000000000000000000000000
#0521b:00000013000000000000000000000000
#05219:0000000000000013
#04516:00000013000000000013000000000000
#0451b:00000013000000000000000000000000
#04517:1300001300001300
#04512:0000001300001300
#04519:0000000000000013
#04510:41
#0531b:13000013
#05317:00000013000000000000000000001300
#05312:00000000000000000013000000001300
#05316:00000013
#0541b:1300001300001300
#05417:00000013000000000000000000000000
#05412:00000013000000000000000000000000
#05416:0000001300001300
#05419:0000000000000013
#05414:0000000000000013
#05818:0000001300000000
#05819:00130000
#0581a:0013000000000000
#0581b:13
#05813:00000000000000130000000000000000
#05814:00000000001300000000000000000000
#05815:00000013000000000000000000000000
#05816:0000130000000000000000000000000024343434343434340000000000000000
#05517:1313
#05519:0013000000130000
#05512:1414
#05516:00130013
#05514:0000001300000013
#0551a:00140014
#05510:41
#05617:1313
#05619:0013000000130000
#05612:1414
#05616:00130013
#05614:0000001300000013
#0561a:00140014
#0571a:0000000000001313
#05715:00000000000000000000000000130013
#05719:0000000013130000
#05714:00000000000000000013001300000000
#05718:0000131300000000
#05713:00000000001300130000000000000000
#05717:1313000000000000
#05712:00130013000000000000000000000000
#05912:2813181318131813
#0591b:23000013000013000013000013000000
#05918:0000000000000013
#06012:1813181318131813
#0601b:13000013000013000013000013000000
#06018:0000000000000013
#06112:00000013000000000013000000000000
#06116:0000001300001300
#06114:0000000000000013
#06119:0000000000000013
#0631b:13
#06316:1300001300000000
#06317:00000013000000000013000000000000
#06312:00000013
#06314:0000000000000013
#06319:0000000000000013
#0641b:1300001300001300
#06412:00000013000000000013000000000000
#06416:13
#06419:0000000000000013
#06414:0000000000000013
#06512:1300001300000016
#06516:00000013000000000013000000000000
#06517:13
#0651b:00000013000000000013000000000000
#06518:00000016
#06510:41
#0661b:2313000000000000
#06616:00130013000000000000000000000000
#06619:0000231300000000
#06617:0000000023130000
#06612:00000000000000000013001300000000
#06614:00000000001300130000000000000000
#06615:00000029
#06812:12000026
#0681c:12
#06818:00000026
#00112:12000026
#0011c:12
#00118:00000026
#07712:12
#0771c:12
#0691c:12
#06912:12
#0701c:12
#07112:12
#0721c:12
#07316:12
#07418:12
#07516:12
#07618:12
#0621b:00000013000000000013000000000000
#06217:1300001300001300
#06219:0000000000000013
#06214:0000000000000013
#0171b:13
#01712:0000002c
#04916:0024000000000014
#0491a:0000002400000024
#04912:0000000000240000
#04212:23
#01852:53
#01856:0000000000000053
#01857:53
#0185b:0000000000000053
#02056:63
#02052:0000000000000063
#0205b:63
#02057:0000000000000063
#02252:53
#02255:0000000000000063
#0225b:53
#02258:0000000000000053
#02455:63
#02452:0000000000000063
#0245b:0000000000000053
#02458:53
#02558:0000005300001600
#02555:0000006300000000
#02552:00000000000000000023000016000000
#0255b:00000000000000000023000000000000
#0195b:00000013
#01956:00000013
#01952:00000000002300000000000000000000
#01957:00000000002300000000000000000000
#02152:00000013
#02157:00000013
#0215b:00000023000000000000000000000000
#02156:00000023000000000000000000000000
#0235b:00005313
#02352:00006313
#02355:0000000000230000
#02358:0000000000230000
#00257:00530000
#0025b:00000000000000000000000000000013
#00356:00630000
#00352:00000000000000000000000000000013
#00652:00000000530000000000000000000013
#00655:13
#00658:13
#00457:00530000
#00552:00000000000000000000005300000000
#0055b:00000000000000000000006300000000
#00758:00000000000000000000005300000000
#00755:00000000000000000000006300000000
#00955:00230000
#00958:00230016
#00952:00000016
#0085a:0000000000000054
#00852:0000000000000064
#01052:0000005300000000
#0125b:0000006300000000
#01152:0000005300000000
#01157:0000005300000000
#0135b:0000006300000000
#01356:0000006300000000
#02757:0053000013000000
#02752:0053000013000000
#02756:00000000002300000000000000000000
#0275b:00000000002300000000000000000000
#02956:00630000
#0295b:00630000
#02952:0013
#02957:0013
#02652:5353
#0265b:00630000
#02856:6363
#02857:00530000
#03057:53
#0305b:00530000
#03052:0053
#03056:0000000000000063
#03152:0063000000000063
#03158:0000000000530000
#0315b:0000000000000053
#03155:0000000000630000
#03258:00230000000000000000000000000000
#03255:00230000000000000000000000000000
#03257:0000000000000053
#03252:0000000000000053
#0335b:00000000002300000000000000000000
#03356:00000000002300000000000000000000
#03758:0000005200000000
#03856:0000006200000000
#0355c:0000006200000000
#03652:0000005200000000
#03952:52
#03958:62
#04056:52
#04052:0022
#0405c:62
#04058:0022
#04252:2300001c
#03457:22
#04356:0000005300000000
#04452:0000006300000000
#04457:0000006300000000
#04456:00000053
#05052:00000024000000000000000016000000
#05056:00000024000000000000000000000000
#05058:00000016
#0495a:0000006400000064
#04956:0064000000000064
#04952:0000000000540000
#05157:00000063
#0515b:0000000000000023
#04557:0000006300000000
#0465b:0000005300000000
#04656:0000005300000000
#05356:00000053
#05352:0000000000000023
#05252:0000006300000000
#05257:0000006300000000
#0545b:0000005300000000
#05456:0000005300000000
#05856:0024
#05852:0000001c
#05552:1414
#0555a:00140014
#05652:1414
#0565a:00140014
#05952:6823682368236823
#06052:6823682368236823
#06356:5300005300000000
#06357:00000063000000000063000000000000
#0645b:5300005300000000
#06452:00000063000000000063000000000000
#06552:0000006300000000
#06556:00000000000000000053000000000000
#06557:63
#0655b:00000053000000000000000000000000
#06655:00000019
#06852:22000016
#0685c:22
#06858:00000016
#00152:22000016
#0015c:22
#00158:00000016
#07752:62
#0775c:52
#06952:52
#0705c:62
#07152:52
#0725c:62
#07356:62
#07458:52
#07556:62
#07658:52
#0175b:23
#01752:0000001c
#04856:0000000000000054
#000320:12
#001320:52000026
#0003c1:12
#0013c1:52
#001381:00000026
#002371:00130000
#0023b1:0023
#002361:00000000000000000000001300230000
#0023b0:00000000000000000000000000130023
#003360:00130000
#003320:0023
#003370:00000000000000000000001300230000
#003321:00000000000000000000000000130023
#004371:00130000
#0043b1:0023
#004361:00000000000000000000001300230000
#0043b0:00000000000000000000000000130023
#005320:00000000000000000000001300000000
#006350:23
#0053b1:00000000000000000000001300000000
#006381:23
#006321:00130000
#006361:0023
#0063b1:00000000000000000000001300230000
#006320:00000000000000000000000000130023
#007380:00000000000000000000001300000000
#0083b0:23
#007351:00000000000000000000001300000000
#008321:23
#008321:0000000000000014
#009351:00530000
#009321:00000026
#0083a0:0000000000000014
#009380:00530026
#0103b0:13000023000000000000000000000000
#010320:0000001300000000
#010360:00000000000000000023000000000000
#0113b0:13000023000000000000000000000000
#011320:0000001300000000
#011360:00000000000000000023000000000000
#011371:0000001300000000
#0113b1:00000000000000000023000000000000
#012321:13000023000000000000000000000000
#0123b1:0000001300000000
#012371:00000000000000000023000000000000
#013321:13000023000000000000000000000000
#0133b1:0000001300000000
#013371:00000000000000000023000000000000
#013360:0000001300000000
#013320:00000000000000000023000000000000
#0173b0:13
#017320:0000002c
#018370:13
#0183b0:00230000
#018321:13
#018361:00230000
#0183b1:0000000000000013
#019371:00000000005300000000000000000000
#0193b1:00000023
#018360:0000000000000013
#019320:00000000005300000000000000000000
#019360:00000023
#020360:13
#020320:00230000
#0203b1:13
#020371:00230000
#020321:0000000000000013
#021361:00000053000000000000000000000000
#021321:000000000000000000000000333333333333230000000000
#020370:0000000000000013
#0213b0:00000053000000000000000000000000
#021370:000000000000000000000000333333333333230000000000
#0223b0:13
#022380:00230000
#022321:13
#022351:00230000
#022381:0000000000000013
#0233b1:00003323
#023381:0000000000530000
#022350:0000000000000013
#023320:00003323
#023350:0000000000530000
#024350:13
#024320:00230000
#024381:13
#0243b1:00230000
#0243b1:0000000000000013
#025381:0000003300002600
#0253b1:000000000000000000000000000000000000000000000000330033533300330033003300000000000000000000000000
#024320:0000000000000013
#025350:0000003300000000
#025320:000000000000000000000000000000000000000000000000330033533300330033003300260000000000000000000000
#026320:13
#026360:00230000
#0263b1:00130000
#026371:0023
#026320:0013
#026360:00000023
#027370:0013000023000000
#0273b0:00000000005300000000000000000000
#027321:0013000023000000
#027361:00000000005300000000000000000000
#028361:13
#028321:00230000
#028370:00130000
#0283b0:0023
#028361:0013
#028321:00000023
#029361:00130000
#029321:0023
#0293b0:00130000
#029370:0023
#030370:1323
#0303b0:00330000
#030321:0013
#030361:00000023
#030361:0000000000000013
#031321:0033000000000000
#031361:0000002300000000
#031381:0000000000130000
#0313b1:0000000000000033
#032381:00530000000000000000000000000000
#0323b1:00230000
#031350:0000000000130000
#031320:0000000000000033
#032350:00530000000000000000000000000000
#032320:00230000
#032320:0000000000000013
#033360:00000000005300000000000000000000
#033320:00000023
#032371:0000000000000013
#0333b1:00000000005300000000000000000000
#033371:00000023
#034371:12
#034331:0000002a
#0353c1:0000001200000000
#035381:00000022
#036321:0000001200000000
#036361:00000022
#037381:0000001200000000
#0373c1:00000022
#038361:0000001200000000
#039321:32
#040361:32
#040321:0052
#041361:22
#039380:12
#0403c0:32
#040380:0052
#0413c0:22
#042320:1300002c
#043360:0000001300000000
#043320:00000000000000000023000000000000
#044320:0000001300000000
#044360:00000000000000000023000000000000
#044371:0000001300000000
#0443b1:00000000000000000023000000000000
#044361:00000013
#045321:23
#045371:0000001300000000
#0453b1:00000000000000000023000000000000
#0463b1:0000001300000000
#046371:00000000000000000023000000000000
#046360:0000001300000000
#046320:00000000000000000023000000000000
#0473b0:13
#047370:00000023000000000000000000000000
#047370:0000001300000000
#0473b0:00000000000000000023000000000000
#048320:13
#048360:00000023000000000000000000000000
#048360:0000001300000000
#048320:00000000000000000023000000000000
#048360:0000000000000014
#0493a0:0024000000000000
#049361:0014000000000000
#049321:0000002400000000
#0493a0:0000001400000000
#049360:0000000000240000
#049321:0000000000140000
#049361:0000000000000054
#050321:00000054000000000000000000000000
#050361:0024
#0493a0:0000000000000014
#050360:00000054000000000000000000000000
#0503a0:0024
#051370:1300002300000000
#0513b0:00000053000000000000000000000000
#051321:00000000000013000023000000000000
#051371:00000013
#0513b1:0000000000000053
#052371:23
#052321:0000001300000000
#052361:00000000000000000023000000000000
#052370:0000001300000000
#0523b0:00000000000000000023000000000000
#053360:1300002300000000
#053320:00000053000000000000000000000000
#0533b1:00000000000013000023000000000000
#053361:00000013
#053321:0000000000000053
#054361:23
#0543b1:0000001300000000
#054371:00000000000000000023000000000000
#054360:0000001300000000
#054320:00000000000000000023000000000000
#058360:0000000000000000000000000000000014343434343434340000000000000000
#058320:0000002c
#059320:1853385338533853
#060320:3853385338533853
#061320:28
#0613b1:1300005300002300
#061371:00000053000000000053000000000000
#062321:1300005300002300
#062361:00000053000000000053000000000000
#063361:13
#063321:00000023000000000000000000000000
#063370:00000013000000000000000000000000
#0633b0:0000002300000000
#063361:0000001300000000
#063321:00000000000000000023000000000000
#063370:00000000000000000013000000000000
#0633b0:00000023
#0643b0:13
#064370:00000023000000000000000000000000
#064321:00000013000000000000000000000000
#064361:0000002300000000
#0643b0:0000001300000000
#064370:00000000000000000023000000000000
#064321:00000000000000000013000000000000
#064361:00000023
#065371:1300002300000000
#0653b1:00000033000000000000000000000000
#065320:0000001300002300
#065360:00000000000000000033000000000000
#067320:12
#068320:52000026
#0673c1:12
#0683c1:52
#068381:00000026
#069321:12
#070361:22
#0703c0:12
#071380:22
#071321:12
#072361:22
#0723c0:12
#073380:22
#073361:12
#074321:22
#074380:12
#0753c0:22
#075361:12
#076321:22
#076380:12
#0773c0:32
#079380:22
#077321:12
#079361:22
