This file was generated by Ched 2.7.0.0.
#TITLE ""
#ARTIST ""
#DESIGNER ""
#DIFFICULTY 0
#PLAYLEVEL
#SONGID ""
#WAVE ""
#WAVEOFFSET 0
#JACKET ""
#REQUEST "ticks_per_beat 480"
#00002: 4
#BPM01: 132
#00008: 01
#TIL00: ""
#VOLUME: ""
#HISPEED 00
#MEASUREHS 00
#0351f:11
#03515:00000033000000000000000000000000
#0001b:13
#00215:0000000000130000
#00218:00000000130000000000001300000000
#00212:23
#0021b:23000000000000000000000000330000
#00318:0000000000130000
#00315:00000000130000000000001300000000
#00312:00000000000000000000000000330000
#0041b:00130000
#00415:0000000000130000
#00518:00000000000000001300001300000000
#00515:00003300330000000013000000000000
#00512:13
#00718:00130000
#00715:0000001300000000
#00712:00001300000000000000001300000000
#0071b:0013
#00612:0000131300000000
#0061b:0013
#00615:0000000000130000
#00618:00000000000000000000001300000000
#00610:41
#00818:0013001300000000
#00815:00130000
#00812:0024
#00816:00000000000000000000002400000000
#0081a:0000000000000024
#00916:00140000
#01018:0000000000001313
#01012:1300001300000000
#01015:00000013000000000000000000000000
#01112:00000013000000000000000014000000
#01115:1300001300000000
#0111a:00000014
#01612:14
#01616:00343434343434343434343434343434
#01610:41
#01418:0013001300000000
#01412:23130000
#01415:00001313
#0141b:0000000000130013
#01512:13130000
#01518:0013001300000000
#01515:00001313
#0151b:0000000000130013
#0171b:13
#01716:00000028
#02515:0000001300000000
#02518:0000001300000000
#02612:00130000
#02618:0000000013000013
#02615:00000013
#0261b:23
#02610:41
#0271b:0013000000000000
#02712:00000014
#0271a:00000014
#0281b:00130000
#02815:0000000013000013
#02818:00000013
#02812:23
#02912:00130014
#0291a:00000014
#03015:00130000
#0301b:0000000013000013
#03012:00000013
#03018:23
#03115:0000001300000013
#03118:0013
#03112:0000000000130000
#03912:13
#0391b:13
#04015:13
#04018:13
#04212:13000027
#04312:13
#04315:00000013000000000000000013000000
#04318:0000001300000013
#0431f:21
#0431a:24
#04412:13000014
#04415:00000013000000000000000000000000
#04418:0000001300000000
#0441a:00000014
#04515:13
#04518:00000013000000000000000000000000
#04512:00000013
#0451b:0000001300000013
#04510:41
#04618:00000013000000000000000000000000
#04615:13
#0461b:0000001300000000
#04612:0000000000001414
#0121b:1300001300000000
#01218:00000013000000000000000000000000
#01215:0000000000001313
#01318:1300001300000000
#0131b:00000013000000000000000000000000
#01312:00000014
#0131a:00000014
#04812:00000014
#04816:0014000000000000
#0481a:0000000000000024
#05016:00000014000000000000000000000000
#05015:00000026
#05115:00000013000000000000000000000000
#0511b:1300001300000000
#05112:24000013
#0521b:00000013000000000000000013001300
#05215:0000001300000000
#04716:0014000000000000
#0471a:0000000000001414
#05318:00000013000000000000000000000000
#05312:1300001300000000
#0531b:00000013
#05315:0000000000000013
#05412:00000013000000000000000014000000
#05418:1300001300000000
#05416:0000000000000014
#05516:00000000001400000000000000001400
#0551a:0014000000001400
#05510:41
#0561a:0000001400000000
#05616:00000000000000000000001400000000
#05712:0014001400000014
#05716:00140000
#0571a:0014
#05714:0000000000140000
#05718:00000014
#0611a:1400001400001400
#06116:00000014000000000000000000000000
#06112:00000014
#06212:1400001400001400
#06216:00000014000000000000000000000000
#0621a:00000014
#05912:2814181418141814
#06012:1814181418140000
#0631a:14000014
#06316:0000001400000000
#06312:00000014
#0641a:00000014
#06412:14000014
#06416:0000001400000000
#0651a:14000014
#06512:0000001400001400
#06510:41
#06612:14
#0661a:24
#06614:00000034000034000034000000000000
#06618:00000034000034000034000000000000
#06712:13
#0691b:13
#07015:13
#07112:13
#07218:13
#0771b:13
#07712:13
#07312:13
#0751b:13
#07615:13
#07418:13
#02212:0000000000000013
#02215:23000000000000000000002300000000
#02218:0023
#0221b:0000000000000023
#0241b:0000000000000013
#02415:0023
#02418:23000000000000000000002300000000
#02412:0000000000000023
#0581a:0000001424000000
#01812:23
#0181b:0023
#01818:00000000000000000000002300000000
#01815:0000000000000023
#0201b:23
#02012:0023
#02015:00000000000000000000002300000000
#02018:0000000000000023
#0491a:0000000000000024
#04912:0000002400000000
#00116:00000028
#0321a:0000002400000000
#03218:0000000000240000
#03216:0000000000000024
#03212:00000024
#03214:0024
#06812:00000028
#0361b:00000033000000000000000000000000
#03718:00000033000000000000000000000000
#03812:00000033000000000000000000000000
#0005b:23
#00258:00000000530000000000005300000000
#0025b:00000000000000000000000000000013
#00355:00000000630000000000006300000000
#00352:00000000000000000000000000000013
#0045b:00630000
#00558:00000000000000000000005300000000
#00552:53
#0065b:13
#00658:00000000000000000000000000000013
#00752:00000000000000000000005300000000
#00953:0000001a
#00956:00240000
#01052:5300005300000000
#01055:00000053000000000000000000000000
#01652:54
#0175b:23
#01756:00000018
#01952:00000013
#0215b:00000013
#02358:00000013
#02355:00000013
#02552:00000013
#02555:0000006300000000
#02558:0000005300000000
#0255b:00000013
#02658:0000000000000053
#0275b:0053000000000000
#02855:0000000000000063
#02952:00630000
#0305b:0000000000000053
#03152:0000000000630000
#03155:0000000000000063
#03952:63
#0395b:53
#04055:63
#04058:53
#04252:23000017
#04358:0000005300000000
#04458:0000005300000000
#0455b:0000006300000000
#0465b:0000006300000000
#04652:0000000000000054
#01155:6300006300000000
#01152:00000063000000000000000000000000
#0125b:6300006300000000
#01258:00000063000000000000000000000000
#01358:5300005300000000
#0135b:00000053000000000000000000000000
#01852:53
#01855:0000000000000053
#0205b:63
#02058:0000000000000063
#02255:53
#0225b:0000000000000053
#02252:0000000000000063
#02458:53
#02452:0000000000000063
#0245b:0000000000000053
#05056:00000024000000000000000000000000
#05055:00000016
#0495a:0000000000000064
#04952:0000005400000000
#0515b:0000006300000000
#05152:00000053
#05255:0000006300000000
#04756:0054000000000000
#0475a:0000000000000064
#05352:0000005300000000
#05458:0000005300000000
#05456:0000000000000054
#05556:00000000002400000000000000006400
#0555a:0054000000000000
#0565a:0000006400000000
#05656:00000000000000000000002400000000
#05752:0000000000000064
#05856:00000018
#0585a:0024
#0615a:5400005400000000
#06156:00000054000000000000000000000000
#06252:6400006400000000
#06256:00000064000000000000000000000000
#05952:6824682468246824
#06052:6824682468240000
#0635a:64
#06356:0000006400000000
#06452:54
#06456:0000005400000000
#0665a:54
#06652:54
#06654:00000014
#06658:00000014
#0655a:64
#06552:0000005400000000
#00156:00000018
#0085a:0000000000000054
#03256:0000000000000054
#06752:23
#06852:00000018
#0695b:53
#07055:53
#07152:63
#07258:63
#0775b:53
#07752:63
#07352:63
#0755b:53
#07655:53
#07458:63
#04856:0064000000000000
#0485a:0000000000000064
#0003b0:13
#001360:00000028
#002380:00130000
#0023b0:0023
#002380:00000000000000000000001300000000
#0023b0:00000000000000000000000000330023
#003350:00130000
#003320:0023
#003350:00000000000000000000001300000000
#003320:00000000000000000000000000330023
#0043b0:00130000
#004380:0023
#004380:00000000000000000000001300230000
#004320:00000000000000000000000000000013
#005320:33
#005350:0033332300000000
#005380:00000000000000000000001300000000
#0063b0:23
#006380:00000000000000000000000000130023
#007320:00000000000000000000001300000000
#008350:23
#0083a0:0000000000000014
#009360:00540000
#009330:0000002a
#010320:1300003300000000
#010350:00000033000000000023000000000000
#011350:1300003300000000
#011320:00000033000000000023000000000000
#0123b0:1300003300000000
#012380:00000033000000000023000000000000
#013380:1300003300000000
#0133b0:00000033000000000023000000000000
#016320:14
#016360:00343434343434343434343434343434
#017360:24
#0173b1:13
#017361:00000028
#018321:13
#018351:00230000
#018351:0000000000000013
#019321:00000023
#0203b1:13
#020381:00230000
#020381:0000000000000013
#0213b1:00000023
#022351:13
#022321:00230000
#0223b1:0000000000000013
#023381:00000023
#022320:0000000000000013
#023350:00000023
#024380:13
#0243b0:00230000
#024320:0000000000000013
#025350:0000003300000000
#025320:00000023
#0243b1:0000000000000013
#025381:0000003300000000
#0253b1:00000023
#026381:0000000000000013
#0273b1:0033000000000000
#027381:0023
#028351:0000000000000013
#029321:0033330000000000
#029351:0023
#0303b1:0000000000000013
#031381:0023000000000000
#031321:0000000000130000
#031351:0000000000000033
#032321:00230000
#032361:0000000000000014
#0343a1:24
#035321:13
#035351:00000033000033000000000023000000
#036381:13
#0363b1:00000033000033000000000023000000
#0373b1:13
#037381:00000033000033000000000023000000
#038351:13
#038321:00000033000033000000000023000000
#039321:13
#040351:33
#041321:23
#0393b0:13
#040380:33
#0413b0:23
#042320:13000027
#043380:0000001300000000
#0433b0:00000000000000000023000000000000
#044380:0000001300000000
#0443b0:00000000000000000023000000000000
#0453b0:0000001300000000
#045380:00000000000000000023000000000000
#0463b0:0000001300000000
#046380:00000000000000000023000000000000
#046320:0000000000000014
#047360:00343400000000000000000000000000
#047320:0024
#0473a0:0000000000000014
#048360:00343400000000000000000000000000
#0483a0:0024
#0483a0:0000000000000014
#049360:0024000000000000
#049320:0000001400000000
#049360:0000000000240000
#0493a0:0000000000000014
#050360:00000054000000000000000000000000
#0503a0:0024
#0513b0:0000001300000000
#051380:00000000000000000023000000000000
#051320:00000013
#052350:23
#052350:0000001300000000
#052320:00000000000000000023000000000000
#053320:0000001300000000
#053350:00000000000000000023000000000000
#054380:0000001300000000
#0543b0:00000000000000000023000000000000
#054360:0000000000000014
#0553a0:0034000024000000
#055360:00000000005400000000000000000000
#055360:0000000000000014
#056320:0024000000000000
#0563a0:0000143400000000
#056360:00000000000000000000005400000000
#0573a0:24
#057320:0000000000000014
#058360:00240000
#0583a0:0014
#058360:00000028
#059320:1854385438543854
#060320:3854385438542800
#0613a0:1400003400000000
#061360:00000034000000000024000000000000
#062320:1400003400000000
#062360:00000034000000000024000000000000
#0633a0:14
#063360:00000024000000000000000000000000
#063360:0000001400000000
#0633a0:00000000000000000024000000000000
#064320:14
#064360:00000024000000000000000000000000
#064360:0000001400000000
#064320:00000000000000000024000000000000
#0653a0:14
#065360:00000024000000000000000000000000
#065320:0000001400000000
#065360:00000000000000000024000000000000
#066320:14
#066340:00000034000034000034000024000000
#0663a1:14
#066381:00000034000034000034000024000000
#067321:13
#068321:00000028
#0693b1:13
#069381:00000023
#070351:13
#070321:00000023
#071321:13
#071351:00000023
#072381:13
#0723b1:00000023
#073321:13
#073351:00000023
#074381:13
#0743b1:00000023
#0753b1:13
#075381:00000023
#076351:13
#076321:00000023
#0773b1:13
#079381:23
#077320:13
#079350:23
