This file was generated by Ched 2.7.0.0.
#TITLE ""
#ARTIST ""
#DESIGNER ""
#DIFFICULTY 0
#PLAYLEVEL
#SONGID ""
#WAVE ""
#WAVEOFFSET 0
#JACKET ""
#REQUEST "ticks_per_beat 480"
#00002: 4
#BPM01: 132
#00008: 01
#TIL00: ""
#VOLUME: ""
#HISPEED 00
#MEASUREHS 00
#0351f:11
#03518:1200001200000000
#03516:00000012000000000000000000000000
#03512:12000012
#0351c:00000000000000000012000000000000
#03514:0000000000000012
#0351a:0000000000000012
#00212:2c000000130000000000001300000000
#00216:00000000180000001300180000130000
#0021b:00000000000000000000000000130000
#0031b:00000000130000000000001300000000
#00317:00000000000000001300000000130000
#00312:00000000180000000000180000130000
#00412:00130000
#00416:00000000180000001300180000000013
#00417:00000000000000000000000000130000
#00512:13000000180000001c1c001600000000
#00516:1814001400000000
#0051b:00130000
#00518:00000000000000000000001600000000
#00612:0000141618130000
#00617:00000000130000000000001300000000
#00619:0000001300000000
#0061b:0013
#00616:00000000000000000000000000130014
#00610:41
#0071a:0014000000000000
#00716:0013001800000000
#00714:00130000
#00718:00000000160000000000001600000000
#00712:000000000000000000000000130000001c000000000016000000001200000000
#0071c:0000000000000000000000000000000000000000000000000000001200000000
#00812:00001300000013001800002400001800
#00816:00001400140014000000001800000000
#0081b:00130000
#0081a:0000000024000024
#00912:00140000
#01012:1a
#01018:0000001200001200
#01015:0000000000000012
#0101a:00000012000000000000000000000000
#0101c:12
#01114:1a000012000000000000000000000000
#01116:0000001200001200
#01119:0000000000000012
#01112:12
#01212:1a
#01218:0000001200001200
#0121a:00000012000000000000000000001200
#0121c:12
#01314:1a000012000000000000000000001200
#01316:0000001200001200
#01312:12
#0141a:00140014
#01412:24181418
#01416:1814001418140014
#01512:14181418
#01516:1814001418140014
#0151a:00140014
#01612:1612160016001616
#01618:00160012001600000016000000160016
#01614:0000001200000000
#01616:0000000000120000
#0161c:00000000000000000000001200000000
#0161a:00000000000000120000000000000000
#01610:41
#01718:1600001200002600
#01716:0000001200000000
#01712:16000026
#0261b:23130000
#02617:0013001300130000
#02612:0013001300130000
#02616:1313
#02610:41
#02712:0013000000001c00
#0271b:0013000000000013
#02716:000000000000000000000000000000000000000000000000000000000000000000000000000000000000000000000000000000000000000000000000000000000000000000000000000000000000000000000000000000000000000000000000000000000000000000000000000000000000000000000000000000000000000000000000000000000000000000000000000000000000000000000000000000000000000000000000000000000000000000000000000000000000000000000000000000000000000000000000000000000000000000000000000000000000000000000000000000000000000000000000000000000000000000000000000000000000000000000000000000000000000000000000000000000000000000000000000000000000000000000000000000000000000000000000000000000000000000000000000000000000000000000000000000000000000000000000000000000000000000000000000000000000000000000000000000000000000000000000000000000000000000000000000000000000000000000000000000000000000000000000000000000000000000000000000000000000000000000000000000000000000000000000000000000000000000000000000000000000000000000000000000000000000000000000000000000000000000000000000000000000000000000000000000000000000000000000000000000000000000000000000000000000000000000000000000000000000000000000000000000000000000000000000000000000000000000000000000000000000000000014140000000000000000000000000000000000000000000000000000000000000000000000000000000000000000000000000000000000000000000000000000000000000000000000000000000000000000000000000000000000000000000000000000000000000000000000000000000000000000000000000000000000000000000000000000000000000000000000000000000000000000000000000000000000000000000000000000000000000000000000000000000000000000000000000000000000000000000000000000000000000000000000000000000000000000000000000000000000000000000000000000000000000000000000000000000000000000000000000000000000000000000000000000000000000000000000000000000000000000000000000000000000000000000000000000000000000000000000000000000000000000000000000000000000000000000000000000000000000000000000000000000000000000000000000000000000000000000000000000000000000000000000000000000000000000000000000000000000000000000000000000000000000000000000000000000000000000000000000000000000000000000000000000000000000000000000000000000000000000000000000000000000000000000000000000000000000000000000000000000000000000000000000000000000000000000000000000000000000000000000000000000000000000000000000000000000000000000000000000000000000000000000000000000000000000000000000000000000000000000000000000000000000000000000000000000000000000000000000000000000000000000000000000000000000000000000000000000000000000000000000000000000000000000000000000000000000000000000000000000000000000000000000000000000000000000000000000000000000000000000000000000000000000000000000000000000000000000000000000000000000000000000000000000000000000000000000000000000000000000000000000000000000000000000000000000000000000000000000000000000000000000000000000000000000000000000000000000000000000000000000000000000000000000000000000000000000000000000000000000000000000000000000000000000000000000000000000000000000000000000000000000000000000000000000000000000000000000000000000000000000000000000000000000000000000000000000000000000000000000000000000000000000000000000000000000000000000000000000000000000000000000000000000000000000000000000000000000000000000000000000000000000000000000000000000000000000000000000000000000000000000000000000000000000000000000000000000000000000000000000000000000000000000000000000000000000000000000000000000000000000000000000000000000000000000000000000000000000000000000000000000000000000000000000000000000000000000000000000000000000000000000000000000000000000000000000000000000000000000000000000000000000000000000000000000000000000000000000000000000000000000000000000000000000000000000000000000000000000000000000000000000000000000000000000000000000000000000000000000000000000000000000000000000000000000000000000000000000000000000000
#02717:0000000000000013
#02718:13
#02812:23130000
#02816:0013001300130000
#0281b:0013001300130000
#02817:1313
#02912:0013130000001c13
#0291b:00130000
#02916:0000000000000013
#02915:13
#03016:1300001313000000
#03017:0013130000130000
#0301b:23000013
#03012:0000000000000013
#03116:1300000000130013
#0311b:00131300
#03117:0000001300000000
#03112:00001313
#03212:0013002c28240000
#03217:13
#0321b:0013000000000000
#03216:0000000000000028
#0321a:00000024
#03412:12
#0341c:12
#03312:1600120016000000160000001c1c1c1c
#03318:00160000001600000016001200000000
#0331c:00000012000000000000000000000000
#03314:0000001200000000
#03316:0000000000120000
#0331a:00000000000000120000000000000000
#03616:1200001200000000
#03618:00000012000000000000000000000000
#0361c:12000012
#03612:00000000000000000012000000000000
#03712:1200001200000000
#0371c:00000012000000000000000000000000
#03716:00000000000000000012000000000000
#03718:12000012
#03714:0000000000000012
#0371a:0000000000000012
#0381c:1200001200000000
#03812:00000012000000000000000000000000
#03817:00000000000000000000001200000000
#03816:12
#0391c:12
#03918:0012
#03916:0012
#03912:22
#04012:12
#04017:000000000000000000000000000000000000000000000000000000000000000000000000000000000000000000000000000000000000000000000000000000000000000000000000000000000000000000000000000000000000000000000000000000000000000000000000000000000000000000000000000000000000000000000000000000000000000000000000000000000000000000000000000000000000000000000000000000000000000000000000000000000000000000000000000000000000000000000000000000000000000000000000000000000000000000000000000000000000000000000000000000000000000000000000000000000000000000000000000000000000000000000000000000000000000000000000000000000000000000000000000000000000000000000000000000000000000000000000000000000000000000000000000000000000000000000000000000000000000000000000000000000000000000000000000000000000000000000000000000000000000000000000000000000000000000000000000000000000000000000000000000000000000000000000000000000000000000000000000000000000000000000000000000000000000000000000000000000000000000000000000000000000000000000000000000000000000000000000000000000000000000000000000000000000000000000000000000000000000000000000000000000000000000000000000000000000000000000000000000000000000000000000000000000000000000000000000000000000000000000012120000000000000000000000000000000000000000000000000000000000000000000000000000000000000000000000000000000000000000000000000000000000000000000000000000000000000000000000000000000000000000000000000000000000000000000000000000000000000000000000000000000000000000000000000000000000000000000000000000000000000000000000000000000000000000000000000000000000000000000000000000000000000000000000000000000000000000000000000000000000000000000000000000000000000000000000000000000000000000000012120000000000000000000000000000000000000000000000000000000000000000000000000000000000000000000000000000000000000000000000000000000000000000000000000000000000000000000000000000000000000000000000000000000000000000000000000000000000000000000000000000000000000000000000000000000000000000000000000000000000000000000000000000000000000000000000000000000000000000000000000000000000000000000000000000000000001212000000000000000000000000000000000000000000000000000000000000000000000000000000000000000000000000000000000000000000000000000000000000000000000000000000000000000000000000000000000000000000000000000000000000000000000000000000000000000000000000000000000000000000000000000000000000000000000000000000000000000000000000000012120000000000000000000000000000000000000000000000000000000000000000000000000000000000000000000000000000000000000000000000000000000000000000000000000000000000000000000000000000000000000000000000000000000000000000000000000000000000000000000000000000000000000000000000000000000000000000000000000000000000000000000000000000121200000000000000000000000000000000000000000000000000000000000000000000000000000000000000000000000000000000000000000000000000000000000000000000000000000000000000000000000000000000000000000000000000000000000000000000000000000000000000000000000000000000000000000000000000000000000012120000000000000000000000000000000000000000000000000000000000000000000000000000000000000000000000000000000000000000000000000000000000000000000000000000000000000000000000000000000000000000000000000000000000000000000000000000000000000000000012120000000000000000000000000000000000000000000000000000000000000000000000000000000000000000000000000000000000000000000000000000000000000000000000000000000000000000000000000000000000000000000000000000121200000000000000000000000000000000000000000000000000000000000000000000000000000000000000000000000000000000000000000000000000000000000000000000000000000000000012120000000000000000000000000000000000000000000000000000000000000000000000000000000000000000000000000000000000000000000000000000000000000000000000000000000000001212000000000000000000000000000000000000000000000000000000000000000000000000000000
#04019:000000000000000000000000120000000000120000000000120000001200000012000000120000120000120012001200
#04015:000000000000000000000000120000000000120000000000120000001200000012000000120000120000120012001200
#0401c:12
#0421c:12
#04212:22000000000000000000000000000000000000000000000000000000000000000000000000000000000000000000000000000000000000000000000000000000000000000000000000000000000000000000000000000000000000000000000000000000000000000000000000000000000000000000000000000000000000000000000000000000000000000000000000000000000000000000000000000000000000000000000000000000000000000000000000000000000000000000000000000000000000000000000000000000000000000000000000000000000000000000000000000000000000000000000000000000000000000000000000000000000000000000000000000000000000000000000000000000000000000000000000000000000000000000000000000000000000000000000000000000000000001c1c000000000000000000000000000000000000000000000000000000000000000000000000000000000000000000000000000000000000000000000000000000000000000000000000000000000000000000000000000000000000000000000000000000000000000000000000000000000000000000000000000000000000000000000000000000000000000000000000000000000000000000000000000000000000000000000000000000000000000000000000000000000000000000000000000000000000000000000000000000000000000000000000000000000000000000000000000000000000000000000000000000000000000000000000000000000000000000000000000000000000000000000000000000000000000000000000000000000000000000000000000000000000000000000000000000000000
#04218:00000026
#04317:00001313000000000000000000000000
#04312:18000014000018001300000013000000
#0431b:00000000001300001300000013000000
#04315:00000000000000000013001300000000
#04318:0000000000130013
#0431f:21
#0431a:24
#04416:00001414000000000000000000000000
#0441b:00000013000000001300000013000000
#04412:1800001813000000
#0441a:14
#04417:00000000001300000000000000000000
#04415:0000000000130013
#04418:00000000000000000013000000000000
#04712:2c001428000014001428000000000000
#0471b:00000013000000000013000000001300
#04717:00000000001327000000001327000000
#00112:120000000000000000000000000000000000000000000000000000000000000000000000000000000000000000000000000000000000000000000000000000000000000000000000000000000000000000000000000000000000000000000000000000000000000000000000000000000000000000000000000000000000000000000000000000000000000000000000000000000000000000000000000000000000000000000000000000000000000000000000000000000000000000000000000000000000000000000000000000000000000000000000000000000000000000000000000000000000000000000000000000000000000000000000000000000000000000000000000000000000000000000000000000001c1c00000000000000000000000000000000000000000000000000000000000000000000000000000000000000000000000000000000000000000000000000000000000000000000000000000000000000000000000000000000000000000000000000000000000000000000000000000000000000000000000000000000000000000000000000000000000000000000000000000000000000000000000000000000000000000000000000000000000000000000000000000000000000000000000000000000000026000000000000000000000000000000000000000000000000000000000000000000000000000000000000000000000000000000000000000000000000000000000000000000000000000000000000000000000000000000000000000000000000000000000000000000000000000000000000000000000000000000000000000000000000000000000000000000000000000000000000000000000000000000
#0011c:22
#04516:18001313000018000000000000000000
#0451a:00000014000000000000000000000000
#04512:14000000001300001300000013000000
#0451b:00001313
#04518:00000000000000000013001300000000
#04515:0000000000130013
#04510:41
#04616:18001414001318000000000000000000
#04612:14000013000000001300000013000000
#0461b:0013
#04618:0000000000130013
#04615:00000000000000000013000000000000
#04917:1414
#0491c:1212
#04915:00140014
#04912:0000000000000000120000002400000000000000000000001200000024340034
#0491a:00002400000000000000240000001434
#05012:0034003414340034003400340000000000000000000000002600000000000000
#0501a:34341434343400000000000000000000
#05013:001a
#05014:00000000000000000018000000000000
#05015:0000000000160000
#05016:00000000000000000000001400000000
#05018:00000026
#05112:24001414000000001300000013000000
#05117:00000013000000000000000000000000
#05116:18000000001418000000000000140014
#0511b:00000000000000001300001300001300
#05115:00000000000000000013000000000000
#05118:0000000000130000
#04816:00000028001300000028001300002400
#0481a:0014001414000000
#04812:2c000013000027000013000027002400
#05212:1400130000131c001300001300000000
#05216:18000014000000000000000013000000
#0521b:00000013000000001300000013000000
#05217:0000000000000013
#05218:0000000000130000
#05215:00000000000000000013000000000000
#0531a:14001414000000000000000000000000
#05316:00000013001400000000000000140014
#05312:18000000000018001300001300001300
#0531b:00001313
#05318:00000000000000000013000000000000
#05315:0000000000130000
#0541a:14
#05412:1800001300001c001300000013000000
#0541b:00001300001300001300001300000000
#05416:00000014000000000000000000001300
#05417:00000013
#05415:0000000000130000
#05418:00000000000000000013000000000000
#05512:1414141414141414
#05510:41
#0561a:1414141414141414
#05712:1600160016121600
#05718:00160000001600000016001200000016
#05716:0012000000000016
#0571c:00000012000000000000000000000000
#05714:00000000000012000000000000160000
#0571a:00000000000000120000000000000000
#05818:12000000001200000000000000000000
#0581c:00120000000000000000000000000000
#05816:00001200000000120000000000000000
#0581a:00000012000000000000000000000000
#05812:0000000000000000000000001200000022323232323232320000000000000000
#05814:00120000
#05915:0012001200120012
#05912:28181818
#0591a:00000012000000000012000000001200
#0591c:2200001200001200
#0601c:1200001200001200
#0601a:00000012000000000012000000000000
#06012:180018001800001c
#06015:0012001200120000
#06112:13000000001300000000001318000000
#06116:1313001313000018
#0611b:00000013000000000013000000000000
#0621b:00001313000000001313000000000000
#06217:13
#06212:1300000000131300000000131c001400
#0621a:0000000000000014
#06412:0000131300000000131300001c001400
#0641a:0000000000000014
#06416:13
#0641b:13000000001313000000001300000000
#0631b:13000000001300000000001300000000
#06317:1313001313000000
#06312:00000013000000000013000000001800
#06316:00000018
#0681c:12
#06812:0000002c
#06712:1c
#01817:27130000
#01812:2400000000001c002800002600002400
#0181a:0014
#01818:00000000000000000000001600000000
#01816:0000000000000018
#01912:0000000000140000000000002c000000
#02012:2700000000001c001400001600001800
#02016:00132800
#02018:00000000000000000000002600000000
#0201a:2400000000000024
#0211a:000000000000000000000000000000140000000000000000340034003400340034003400000000000000000000000000
#02112:0000002c
#06612:261628182a1a2c00
#06618:00160016000000000000000000000000
#06616:00000000001800180000000000000000
#06614:0000000000000000001a001a00000000
#0221a:0000000014000014
#02212:2200000000001c002800001400002800
#02218:00120000
#02216:28000000000000000000002800000000
#02412:2800000000001c001400002800001400
#0241a:00000000000000000000001400000000
#02416:0000120028000028
#0241c:22
#02312:00000015000000001500150026000000
#02319:0000000015150000
#02318:00000026
#02512:0000000000000000000000001500000035351535353535352600000000000000
#02519:0000000015000000000000001500000035351535353535350000000000000000
#02518:00000026
#0651a:00000014000000000000140000001400
#06516:00001400001400002800001400000000
#06512:280000002c000000001400002c001400
#06510:41
#07616:0000001200000012
#07618:0000000000000012
#07612:0012
#0761c:0012
#07614:00000000000000000000001200000000
#0761a:00000000000000000000001200000000
#06918:00120000
#06912:2c120000
#06916:0012
#0691c:0000000000120000
#07016:00120000
#0701c:00120000
#07018:0012
#07012:0000000000120000
#07118:00120000
#07112:00120000
#07116:00000000000000001200000000000012
#0711c:0000000000120000
#07218:00120000
#07216:0000001200000000
#0721c:12000000000000001200001200000000
#07212:00001200000000000012001200000000
#07312:00120000
#07318:00120000
#0731a:0000001200000000
#0731c:0012
#07316:0000000000120000
#0741c:0012000012000000
#07416:00001200000000000000001200000000
#07414:00120000
#07412:0000001212000000
#07418:00000000000000000000001200000000
#07517:00120000
#07514:0012000000000000
#0751a:0000001200000000
#07512:0012
#0751c:0000000000000012
#07712:0012
#0771c:0012
#00152:520000000000000000000000000000000000000000000000000000000000000000000000000000000000000000000000000000000000000000000000000000000000000000000000000000000000000000000000000000000000000000000000000000000000000000000000000000000000000000000000000000000000000000000000000000000000000000000000000000000000000000000000000000000000000000000000000000000000000000000000000000000000000000000000000000000000000000000000000000000000000000000000000000000000000000000000000000000000000000000000000000000000000000000000000000000000000000000000000000000000000000000000000000002c2c00000000000000000000000000000000000000000000000000000000000000000000000000000000000000000000000000000000000000000000000000000000000000000000000000000000000000000000000000000000000000000000000000000000000000000000000000000000000000000000000000000000000000000000000000000000000000000000000000000000000000000000000000000000000000000000000000000000000000000000000000000000000000000000000000000000000016000000000000000000000000000000000000000000000000000000000000000000000000000000000000000000000000000000000000000000000000000000000000000000000000000000000000000000000000000000000000000000000000000000000000000000000000000000000000000000000000000000000000000000000000000000000000000000000000000000000000000000000000000000
#00158:00000016
#0015c:52
#00256:00000000580000000000000000230000
#0025b:00000000000000000000000000230000
#00252:00000000000000000000005300000033
#00257:00000000000000000000000000000033
#00352:00000000680000000000000000230000
#0035b:00000000000000000000006300000043
#00357:00000000000000000000000000230000
#00356:00000000000000000000000000000043
#00456:00580000
#00457:00000000000000000000000000530000
#00552:00000000000000000000006600000000
#00558:00000000000000000000005600000000
#00652:12000000000000000000000000000013
#0065c:12
#00657:00000000000000000000005300000000
#00656:00000000000000000000000000630014
#00752:000000000000000000000000000000001c000000000056000000002200000000
#00758:00000000000000000000006600000000
#0075c:0000000000000000000000000000000000000000000000000000002200000000
#00852:0000000038000038
#00856:00000000000000000000004800000000
#0085a:0000000000000054
#00952:0024004c
#01052:5a
#01058:0000005200000000
#01154:6a
#01156:0000006200000000
#01252:5a
#01258:0000005200000000
#01354:6a
#01356:0000006200000000
#01452:00380038
#01456:4848
#01556:4848
#01552:00380038
#01758:5600002200004600
#01756:0000002200000000
#01752:66000036
#0265b:00530000
#02657:0000002300000000
#02656:5353
#02652:0023000000230000
#02752:0063000016000000
#0275b:0053000000000000
#02758:0016
#02756:000000000000000000000000000000000000000000000000000000000000000000000000000000000000000000000000000000000000000000000000000000000000000000000000000000000000000000000000000000000000000000000000000000000000000000000000000000000000000000000000000000000000000000000000000000000000000000000000000000000000000000000000000000000000000000000000000000000000000000000000000000000000000000000000000000000000000000000000000000000000000000000000000000000000000000000000000000000000000000000000000000000000000000000000000000000000000000000000000000000000000000000000000000000000000000000000000000000000000000000000000000000000000000000000000000000000000000000000000000000000000000000000000000000000000000000000000000000000000000000000000000000000000000000000000000000000000000000000000000000000000000000000000000000000000000000000000000000000000000000000000000000000000000000000000000000000000000000000000000000000000000000000000000000000000000000000000000000000000000000000000000000000000000000000000000000000000000000000000000000000000000000000000000000000000000000000000000000000000000000000000000000000000000000000000000000000000000000000000000000000000000000000000000000000000000000000000000000000000000000024240000000000000000000000000000000000000000000000000000000000000000000000000000000000000000000000000000000000000000000000000000000000000000000000000000000000000000000000000000000000000000000000000000000000000000000000000000000000000000000000000000000000000000000000000000000000000000000000000000000000000000000000000000000000000000000000000000000000000000000000000000000000000000000000000000000000000000000000000000000000000000000000000000000000000000000000000000000000000000000000000000000000000000000000000000000000000000000000000000000000000000000000000000000000000000000000000000000000000000000000000000000000000000000000000000000000000000000000000000000000000000000000000000000000000000000000000000000000000000000000000000000000000000000000000000000000000000000000000000000000000000000000000000000000000000000000000000000000000000000000000000000000000000000000000000000000000000000000000000000000000000000000000000000000000000000000000000000000000000000000000000000000000000000000000000000000000000000000000000000000000000000000000000000000000000000000000000000000000000000000000000000000000000000000000000000000000000000000000000000000000000000000000000000000000000000000000000000000000000000000000000000000000000000000000000000000000000000000000000000000000000000000000000000000000000000000000000000000000000000000000000000000000000000000000000000000000000000000000000000000000000000000000000000000000000000000000000000000000000000000000000000000000000000000000000000000000000000000000000000000000000000000000000000000000000000000000000000000000000000000000000000000000000000000000000000000000000000000000000000000000000000000000000000000000000000000000000000000000000000000000000000000000000000000000000000000000000000000000000000000000000000000000000000000000000000000000000000000000000000000000000000000000000000000000000000000000000000000000000000000000000000000000000000000000000000000000000000000000000000000000000000000000000000000000000000000000000000000000000000000000000000000000000000000000000000000000000000000000000000000000000000000000000000000000000000000000000000000000000000000000000000000000000000000000000000000000000000000000000000000000000000000000000000000000000000000000000000000000000000000000000000000000000000000000000000000000000000000000000000000000000000000000000000000000000000000000000000000000000000000000000000000000000000000000000000000000000000000000000000000000000000000000000000000000000000000000000000000000000000000000000000000000000000000000000000000000000000000000000000000000000000000000000000000000000000000000000000000000000000000000000000000000000000000000000000000000000000000000000000000
#02852:00630000
#02856:0000002300000000
#02857:6363
#0285b:0023000000230000
#02952:00631600
#02958:0016
#0295b:00530000
#03056:5353
#03057:00630000
#03156:0000000000000053
#03252:0023160000000000
#03258:00160000
#0325b:0023000000000000
#03452:22
#0345c:22
#03558:5200005200000000
#03556:00000062000000000000000000000000
#0355c:00000000000000000022000000000000
#03656:6200006200000000
#03658:00000052000000000000000000000000
#03652:00000000000000000022000000000000
#03752:5200005200000000
#0375c:00000062000000000000000000000000
#03756:00000000000000000022000000000000
#0385c:6200006200000000
#03852:00000052000000000000000000000000
#03857:00000000000000000000002200000000
#0395c:52
#03958:0022
#03952:52
#03956:0022
#04052:62
#04057:000000000000000000000000000000000000000000000000000000000000000000000000000000000000000000000000000000000000000000000000000000000000000000000000000000000000000000000000000000000000000000000000000000000000000000000000000000000000000000000000000000000000000000000000000000000000000000000000000000000000000000000000000000000000000000000000000000000000000000000000000000000000000000000000000000000000000000000000000000000000000000000000000000000000000000000000000000000000000000000000000000000000000000000000000000000000000000000000000000000000000000000000000000000000000000000000000000000000000000000000000000000000000000000000000000000000000000000000000000000000000000000000000000000000000000000000000000000000000000000000000000000000000000000000000000000000000000000000000000000000000000000000000000000000000000000000000000000000000000000000000000000000000000000000000000000000000000000000000000000000000000000000000000000000000000000000000000000000000000000000000000000000000000000000000000000000000000000000000000000000000000000000000000000000000000000000000000000000000000000000000000000000000000000000000000000000000000000000000000000000000000000000000000000000000000000000000000000000000000000062520000000000000000000000000000000000000000000000000000000000000000000000000000000000000000000000000000000000000000000000000000000000000000000000000000000000000000000000000000000000000000000000000000000000000000000000000000000000000000000000000000000000000000000000000000000000000000000000000000000000000000000000000000000000000000000000000000000000000000000000000000000000000000000000000000000000000000000000000000000000000000000000000000000000000000000000000000000000000000000062520000000000000000000000000000000000000000000000000000000000000000000000000000000000000000000000000000000000000000000000000000000000000000000000000000000000000000000000000000000000000000000000000000000000000000000000000000000000000000000000000000000000000000000000000000000000000000000000000000000000000000000000000000000000000000000000000000000000000000000000000000000000000000000000000000000000006252000000000000000000000000000000000000000000000000000000000000000000000000000000000000000000000000000000000000000000000000000000000000000000000000000000000000000000000000000000000000000000000000000000000000000000000000000000000000000000000000000000000000000000000000000000000000000000000000000000000000000000000000000062520000000000000000000000000000000000000000000000000000000000000000000000000000000000000000000000000000000000000000000000000000000000000000000000000000000000000000000000000000000000000000000000000000000000000000000000000000000000000000000000000000000000000000000000000000000000000000000000000000000000000000000000000000625200000000000000000000000000000000000000000000000000000000000000000000000000000000000000000000000000000000000000000000000000000000000000000000000000000000000000000000000000000000000000000000000000000000000000000000000000000000000000000000000000000000000000000000000000000000000062520000000000000000000000000000000000000000000000000000000000000000000000000000000000000000000000000000000000000000000000000000000000000000000000000000000000000000000000000000000000000000000000000000000000000000000000000000000000000000000062520000000000000000000000000000000000000000000000000000000000000000000000000000000000000000000000000000000000000000000000000000000000000000000000000000000000000000000000000000000000000000000000000000625200000000000000000000000000000000000000000000000000000000000000000000000000000000000000000000000000000000000000000000000000000000000000000000000000000000000062520000000000000000000000000000000000000000000000000000000000000000000000000000000000000000000000000000000000000000000000000000000000000000000000000000000000006252000000000000000000000000000000000000000000000000000000000000000000000000000000
#04059:000000000000000000000000220000000000220000000000220000002200000022000000220000220000220022002200
#04055:000000000000000000000000220000000000220000000000220000002200000022000000220000220000220022002200
#0405c:52
#04252:52000000000000000000000000000000000000000000000000000000000000000000000000000000000000000000000000000000000000000000000000000000000000000000000000000000000000000000000000000000000000000000000000000000000000000000000000000000000000000000000000000000000000000000000000000000000000000000000000000000000000000000000000000000000000000000000000000000000000000000000000000000000000000000000000000000000000000000000000000000000000000000000000000000000000000000000000000000000000000000000000000000000000000000000000000000000000000000000000000000000000000000000000000000000000000000000000000000000000000000000000000000000000000000000000000000000000002c2c000000000000000000000000000000000000000000000000000000000000000000000000000000000000000000000000000000000000000000000000000000000000000000000000000000000000000000000000000000000000000000000000000000000000000000000000000000000000000000000000000000000000000000000000000000000000000000000000000000000000000000000000000016000000000000000000000000000000000000000000000000000000000000000000000000000000000000000000000000000000000000000000000000000000000000000000000000000000000000000000000000000000000000000000000000000000000000000000000000000000000000000000000000000000000000000000000000000000000000000000000000000000000000000000000000000000
#04258:00000016
#0425c:52
#04352:18000054000018000000000053000000
#04357:00000013000000000000000000000000
#0445b:00000013000000000000000053000000
#04452:1800001800000000
#04456:00000054000000000000000000000000
#04455:0000000000530000
#0455a:00000064000000000000000000000000
#04556:18000013000018000000000000000000
#0455b:00000063
#04652:00000013000000000000000063000000
#04656:18000064000018000000000000000000
#04658:0000000000630000
#04957:2400004724000000
#04955:00240024
#04952:0034005400370054
#0495a:0064000000640054
#05052:0024000000003600
#0505a:0024000000000000
#05058:00000046
#04856:0000000000000044
#04852:0000000000000054
#05157:00000063000000000000000000000000
#05152:00000014000000000000000000000000
#05156:1800001800000000
#0525b:00000053000000000000000000000000
#05256:18000014000000000000000053000000
#05252:0000001c00000000
#05356:00000053000000000000000000000000
#0535a:00000014000000000000000000000000
#05352:1800001800000000
#05452:1800006300001c000000000000000000
#05456:00000014000000000000000000000000
#05457:00000063
#05552:14141414
#0565a:14141414
#05852:0000224c
#05955:0022002200220022
#05952:68686868
#06156:5300005300000038
#0615b:00000023000000000023000000000000
#06152:00000048
#0625b:00000023000000000023000000000000
#06252:2300002300001c00
#06452:0000002300000000002300001c000000
#0645b:2300002300000000
#06357:6300006300000000
#06352:00000023000000000023000000004800
#06356:00000038
#0685c:22
#06852:0000001c
#06752:5c
#01857:57
#01852:00000000000000003800003600003400
#0185a:0034
#01858:00000000000000000000003600000000
#01856:0000000000000058
#01952:0000000000240000000000004c000000
#02058:00000000000000000000004600000000
#02052:67000000000000004400004600006800
#0205a:0000000000000044
#02056:0048
#0215a:00000000002400000000000000000000
#02152:0000003c
#06652:0000003c
#0225a:0000000034000054
#02252:00000000000000003800004400003800
#02256:58000000000000000000004800000000
#02452:68000000000000004400003800006400
#0245a:00000000000000000000003400000000
#02456:0000000048000048
#02352:00000025000000006500250036000000
#02358:00000046
#02359:0000000055250000
#02559:00002500000065000025000000000000
#02552:00000000000055000025000036000000
#02558:00000046
#07656:0000000000000062
#07658:0000000000000052
#06958:00520000
#07056:00620000
#07158:00520000
#07252:00000000000000000000005200000000
#0725c:00000000000000000000006200000000
#07352:00520000
#0745c:0062000000000000
#07458:00000000000000000000005200000000
#07456:00000000000000000000006200000000
#0755c:0000000000000052
#07752:0022
#0775c:0022
#06052:68686800
#06055:0022002200220000
#000320:12
#001320:520000000000005c0000000026000000
#0013c1:12
#001321:00000000000000000000000000000000000000000000000000000000000000000000000000000000000000000000000000000000000000000000000000000000000000000000000000000000000000000000000000000000000000000000000000000000000000000000000000000000000000000000000000000000000000000000000000000000000000000000000000000000000000000000000000000000000000000000000000000000000000000000000000000000000000000000000000000000000000000000000000000000000000000000000000000000000000000000000000000000000000000000000000000000000000000000000000000000000000000000000000000000000000000000000000000000005c00000000000000000000000000000000000000000000000000000000000000000000000000000000000000000000000000000000000000000000000000000000000000000000000000000000000000000000000000000000000000000000000000000000000000000000000000000000000000000000000000000000000000000000000000000000000000000000000000000000000000000000000000000000000000000000000000000000000000000000000000000000000000000000000000000000000000000000000000000000000000000000000000000000000000000000000000000000000000000000000000000000000000000000000000000000000000000000000000000000000000000000000000000000000000000000000000000000000000000000000000000000000000000000000000000000000000000000000000000000000000000000000000000000000000000000000000000000000000000000
#001381:00000026
#002361:00180000
#0023b1:0023
#002321:00000000000000000000001300000023
#002361:00000000000000000000000000530000
#0023b0:00000000000000000000000000130000
#002370:00000000000000000000000000000023
#003320:00182300
#0033b0:00000000000000000000001300000023
#003370:00000000000000000000000000530000
#003321:00000000000000000000000000130000
#003361:00000000000000000000000000000023
#004361:00180000
#0043b1:0023
#004321:00000000000000000000001300230000
#004370:00000000000000000000000000130000
#0043b0:00000000000000000000000000000023
#005320:00000000000000000000001600000000
#006320:22
#005381:00000000000000000000001600000000
#0063c1:22
#006371:00000000000000000000001300000000
#0063b1:00000000000000000000000000230000
#006360:00000000000000000000000000130000
#006320:00000000000000000000000000000023
#007320:0000000000000000000000000000000000000000000016000000005200000000
#008360:22
#007381:00000000000000000000001600000000
#0073c1:0000000000000000000000000000000000000000000000000000005200000000
#008381:22
#0083a1:0000000000000014
#009321:0054002c
#010321:1a000022
#010380:0000001200000000
#0103c0:00000000000000000022000000000000
#011341:1a
#0113c1:00000022
#011360:0000001200000000
#011320:00000000000000000022000000000000
#012321:1a000022
#012380:0000001200000000
#0123c0:00000000000000000022000000000000
#013341:1a
#0133c1:00000022
#013360:0000001200000000
#013320:00000000000000000022000000000000
#017321:16000026
#017381:0000005200000000
#017380:16000026
#017360:0000005200000000
#018370:17
#0183c0:00220000
#018360:0000000000000018
#019320:0000000000540000000000002c000000
#020320:17220000
#020320:0000000000000018
#0213a0:000000000000000000000000000000540000000000000000340034003400340034003400000000000000000000000000
#021320:0000002c
#022360:18
#0223c0:00220000
#0223a0:0000000000000014
#023320:00000055000000000000550000000000
#023390:0035
#023380:00000026
#023321:00001525
#023391:0000000000550000
#024321:18220000
#024321:0000000000000014
#025391:0000000055000000000000000000000035353535353535350000000000000000
#025321:0000003500002600
#025390:0000001500000000
#025320:0000000000000000000000000000000035353535353535350000000000000000
#025380:00000026
#026360:13230000
#026320:0053000000000000
#0263b1:00132300
#026371:0000005300000000
#026360:00001323
#026320:0000000000530000
#0263b1:0000000000001323
#026320:0000000000000013
#027350:33
#027320:0033000026000000
#027360:00000000005400000000000000000000
#0273b1:0013000000000000
#027361:000000000000000000000000000000000000000000000000000000000000000000000000000000000000000000000000000000000000000000000000000000000000000000000000000000000000000000000000000000000000000000000000000000000000000000000000000000000000000000000000000000000000000000000000000000000000000000000000000000000000000000000000000000000000000000000000000000000000000000000000000000000000000000000000000000000000000000000000000000000000000000000000000000000000000000000000000000000000000000000000000000000000000000000000000000000000000000000000000000000000000000000000000000000000000000000000000000000000000000000000000000000000000000000000000000000000000000000000000000000000000000000000000000000000000000000000000000000000000000000000000000000000000000000000000000000000000000000000000000000000000000000000000000000000000000000000000000000000000000000000000000000000000000000000000000000000000000000000000000000000000000000000000000000000000000000000000000000000000000000000000000000000000000000000000000000000000000000000000000000000000000000000000000000000000000000000000000000000000000000000000000000000000000000000000000000000000000000000000000000000000000000000000000000000000000000000000000000000000000000054000000000000000000000000000000000000000000000000000000000000000000000000000000000000000000000000000000000000000000000000000000000000000000000000000000000000000000000000000000000000000000000000000000000000000000000000000000000000000000000000000000000000000000000000000000000000000000000000000000000000000000000000000000000000000000000000000000000000000000000000000000000000000000000000000000000000000000000000000000000000000000000000000000000000000000000000000000000000000000000000000000000000000000000000000000000000000000000000000000000000000000000000000000000000000000000000000000000000000000000000000000000000000000000000000000000000000000000000000000000000000000000000000000000000000000000000000000000000000000000000000000000000000000000000000000000000000000000000000000000000000000000000000000000000000000000000000000000000000000000000000000000000000000000000000000000000000000000000000000000000000000000000000000000000000000000000000000000000000000000000000000000000000000000000000000000000000000000000000000000000000000000000000000000000000000000000000000000000000000000000000000000000000000000000000000000000000000000000000000000000000000000000000000000000000000000000000000000000000000000000000000000000000000000000000000000000000000000000000000000000000000000000000000000000000000000000000000000000000000000000000000000000000000000000000000000000000000000000000000000000000000000000000000000000000000000000000000000000000000000000000000000000000000000000000000000000000000000000000000000000000000000000000000000000000000000000000000000000000000000000000000000000000000000000000000000000000000000000000000000000000000000000000000000000000000000000000000000000000000000000000000000000000000000000000000000000000000000000000000000000000000000000000000000000000000000000000000000000000000000000000000000000000000000000000000000000000000000000000000000000000000000000000000000000000000000000000000000000000000000000000000000000000000000000000000000000000000000000000000000000000000000000000000000000000000000000000000000000000000000000000000000000000000000000000000000000000000000000000000000000000000000000000000000000000000000000000000000000000000000000000000000000000000000000000000000000000000000000000000000000000000000000000000000000000000000000000000000000000000000000000000000000000000000000000000000000000000000000000000000000000000000000000000000000000000000000000000000000000000000000000000000000000000000000000000000000000000000000000000000000000000000000000000000000000000000000000000000000000000000000000000000000000000000000000000000000000000000000000000000000000000000000000000000000000000000000000000000000000000000000
#027381:0026
#028371:13230000
#0283b1:0053000000000000
#028320:00132300
#028360:0000005300000000
#028371:00001323
#0283b1:0000000000530000
#028320:0000000000001323
#0283b1:0000000000000013
#029381:33
#0293b1:0023000000000000
#029321:00130000
#029381:0026
#0293b0:00130000
#029320:0026
#030360:13
#030320:0033230000000000
#030371:00130000
#0303b1:0000003323000000
#030360:0013
#030320:0000000000332300
#030370:0000000000000013
#0313b0:33
#031370:0023000000000000
#031321:0013002300000000
#031361:00330000
#0313b1:0000000000130023
#031371:00000033
#031360:0000000000000013
#032320:3333260000000000
#0323b1:0013000000000000
#032381:00260000
#0323a1:0014
#032361:0000000000280000
#032321:0000000000001824
#034321:12000026
#0343c0:12
#034380:00000026
#035380:12
#0353c0:00000022000000000000000000000000
#035361:00000012000000000000000000000000
#035321:0000002200000000
#035380:0000001200002200
#0353c0:00000000000000000052000000000000
#036360:12
#036320:00000022000000000000000000000000
#036381:00000012000000000000000000000000
#0363c1:0000002200000000
#036360:0000001200002200
#036320:00000000000000000052000000000000
#037320:12
#037360:00000022000000000000000000000000
#0373c1:00000012000000000000000000000000
#037381:0000002200000000
#037320:0000001200002200
#037360:00000000000000000052000000000000
#0383c0:12
#038380:00000022000000000000000000000000
#038321:00000012000000000000000000000000
#038361:0000002200000000
#0383c0:0000001200000000
#038370:00000000000000000000005200000000
#0393c0:32
#039360:0052
#0403c0:32
#040350:000000000000000000000000520000000000000000000000520000000000000052000000000000520000000052000000
#040370:000000000000000000000000000000000000000000000000000000000000000000000000000000000000000000000000000000000000000000000000000000000000000000000000000000000000000000000000000000000000000000000000000000000000000000000000000000000000000000000000000000000000000000000000000000000000000000000000000000000000000000000000000000000000000000000000000000000000000000000000000000000000000000000000000000000000000000000000000000000000000000000000000000000000000000000000000000000000000000000000000000000000000000000000000000000000000000000000000000000000000000000000000000000000000000000000000000000000000000000000000000000000000000000000000000000000000000000000000000000000000000000000000000000000000000000000000000000000000000000000000000000000000000000000000000000000000000000000000000000000000000000000000000000000000000000000000000000000000000000000000000000000000000000000000000000000000000000000000000000000000000000000000000000000000000000000000000000000000000000000000000000000000000000000000000000000000000000000000000000000000000000000000000000000000000000000000000000000000000000000000000000000000000000000000000000000000000000000000000000000000000000000000000000000000000000000000000000000000000000052000000000000000000000000000000000000000000000000000000000000000000000000000000000000000000000000000000000000000000000000000000000000000000000000000000000000000000000000000000000000000000000000000000000000000000000000000000000000000000000000000000000000000000000000000000000000000000000000000000000000000000000000000000000000000000000000000000000000000000000000000000000000000000000000000000000000000000000000000000000000000000000000000000000000000000000000000000000000000000000052000000000000000000000000000000000000000000000000000000000000000000000000000000000000000000000000000000000000000000000000000000000000000000000000000000000000000000000000000000000000000000000000000000000000000000000000000000000000000000000000000000000000000000000000000000000000000000000000000000000000000000000000000000000000000000000000000000000000000000000000000000000000000000000000000000000000005200000000000000000000000000000000000000000000000000000000000000000000000000000000000000000000000000000000000000000000000000000000000000000000000000000000000000000000000000000000000000000000000000000000000000000000000000000000000000000000000000000000000000000000000000000000000000000000000000000000000000000000000000000052000000000000000000000000000000000000000000000000000000000000000000000000000000000000000000000000000000000000000000000000000000000000000000000000000000000000000000000000000000000000000000000000000000000000000000000000000000000000000000000000000000000000000000000000000000000000000000000000000000000000000000000000000000520000000000000000000000000000000000000000000000000000000000000000000000000000000000000000000000000000000000000000000000000000000000000000000000000000000000000000000000000000000000000000000000000000000000000000000000000000000000000000000000000000000000000000000000000000000000000052000000000000000000000000000000000000000000000000000000000000000000000000000000000000000000000000000000000000000000000000000000000000000000000000000000000000000000000000000000000000000000000000000000000000000000000000000000000000000000000052000000000000000000000000000000000000000000000000000000000000000000000000000000000000000000000000000000000000000000000000000000000000000000000000000000000000000000000000000000000000000000000000000000520000000000000000000000000000000000000000000000000000000000000000000000000000000000000000000000000000000000000000000000000000000000000000000000000000000000000052000000000000000000000000000000000000000000000000000000000000000000000000000000000000000000000000000000000000000000000000000000000000000000000000000000000000005200000000000000000000000000000000000000000000000000000000000000000000000000000000
#040390:000000000000000000520000000052000000520000520052
#041350:22
#039321:12
#039381:0052
#040321:32
#040391:000000000000000000000000520000000000000000000000520000000000000052000000000000520000000052000000
#040371:000000000000000000000000000000000000000000000000000000000000520000000000000000000000520000000000000000005200000000000000520000000000000052000000000000520000000000520000000052000000520000005200
#040351:000000000000000000520000000052000000520000520052
#041391:22
#0423c1:12
#042321:0000000000000000000000000000000000000000000000000000000000000000000000000000000000000000000000000000000000000000000000000000000000000000000000000000000000000000000000000000000000000000000000000000000000000000000000000000000000000000000000000000000000000000000000000000000000000000000000000000000000000000000000000000000000000000000000000000000000000000000000000000000000000000000000000000000000000000000000000000000000000000000000000000000000000000000000000000000000000000000000000000000000000000000000000000000000000000000000000000000000000000000000000000000000000000000000000000000000000000000000000000000000000000000000000000000000000000005c000000000000000000000000000000000000000000000000000000000000000000000000000000000000000000000000000000000000000000000000000000000000000000000000000000000000000000000000000000000000000000000000000000000000000000000000000000000000000000000000000000000000000000000000000000000000000000000000000000000000000000000000000000000000000000000000000000000000000000000000000000000000000000000000000000000000000000000000000000000000000000000000000000000000000000000000000000000000000000000000000000000000000000000000000000000000000000000000000000000000000000000000000000000000000000000000000000000000000000000000000000000000000000000000000000000000
#042381:00000026
#042320:12005c26
#043320:00000014000000000000000000000000
#043360:00000000002400000000000000000000
#043320:00000013
#043350:0000000000000023
#044360:00000014000000000000000000000000
#044320:00000000002400000000000000000000
#044350:0000000000130000
#044320:00000023
#0443b1:00000013
#044381:0000000000000023
#0453a1:00000014000000000000000000000000
#045361:00000000002400000000000000000000
#0453b1:00000013
#045381:0000000000000023
#046361:00000014000000000000000000000000
#0463a1:00000000002400000000000000000000
#046381:0000000000130000
#0463b1:00000023
#046320:00000013
#046350:0000000000000023
#047320:00000014
#047360:0000000000000024
#0483a0:00000014
#048360:0000000000000024
#048321:0000000000000014
#049371:54
#049321:0024000000000000
#0493a0:0014000000000000
#049350:00540000
#049370:0000002700000000
#049321:0000001400270000
#049371:0054
#0493a0:0000000000140034
#049350:00000054
#049320:0000000000000000000000000000000000000000000000000000000000340034
#050320:0034003454340034003400340000000000000000000000000000000000000000
#050380:0000002600000000
#049321:0000000000000014
#0493a1:00000000000000000000000000000034
#0503a1:34343434343400000000000000000000
#050321:0000002600000000
#051371:00000013000000000000000000000000
#0513b1:00000000002300000000000000000000
#0523b1:00000013000000000000000000000000
#052371:00000000002300000000000000000000
#052361:00000013
#052321:0000000000000023
#053361:00000013000000000000000000000000
#053321:00000000002300000000000000000000
#054321:00000013000000000000000000000000
#054361:00000000002300000000000000000000
#054371:00000013
#0543b1:0000000000000023
#055371:13
#0553b1:0023000000000000
#0553b1:00130000
#055371:0000002300000000
#055371:0013
#0553b1:0000000000230000
#0553b1:00000013
#055371:0000000000000023
#056361:13
#056321:0023000000000000
#056321:00130000
#056361:0000002300000000
#056361:0013
#056321:0000000000230000
#056321:00000013
#056361:0000000000000023
#058321:0000000000000000000000000000000012323232323232322c00000000000000
#059321:18383838
#059351:0052005200520052
#060321:38383828
#060351:0052005200520000
#061361:13
#0613b1:0023000000000000
#0613b1:00000013000000000000000000000000
#061361:00000000002300000000000000000000
#061361:0000001300000000
#0613b1:0023
#0613b1:00000000000000000013000000000000
#061361:00000000000000000000002300000000
#062321:13
#062371:0023000000000000
#0623b1:00000013000000000000000000000000
#062361:00000000002300000000000000000000
#062321:0000001300000000
#062371:0023
#0623b1:00000000000000000013000000000000
#062361:00000000000000000000002300000000
#063371:13
#063321:0023000000000000
#063321:00000013000000000000000000000000
#063371:00000000002300000000000000000000
#063371:0000001300000000
#063321:0023
#063321:00000000000000000013000000000000
#063371:00000000000000000000002300000000
#0643b1:13
#064361:0023000000000000
#064321:00000013000000000000000000000000
#064371:00000000002300000000000000000000
#0643b1:0000001300000000
#064361:0023
#064321:00000000000000000013000000000000
#064371:00000000000000000000002300000000
#0653a1:1424000000000000
#065321:0000001424000000
#067321:1c
#0683c1:52
#068321:0000002c
#069381:00120000
#0693c1:0022
#069361:00000000000000000000001200000000
#069321:00000000000000000000000000520022
#069380:00000000000000000000000000120022
#070360:00120000
#070320:0022
#070380:00000000000000000000001200000000
#0703c0:00000000000000000000000000520022
#070361:00000000000000000000000000120022
#071381:00120000
#0713c1:0022
#071321:00000000000000000000001200000000
#071361:00000000000000000000000000220000
#071380:00000000000000000000000000120022
#072320:00000000000000000000001200000000
#073360:22
#0723c1:00000000000000000000001200000000
#073381:22
#073321:00120000
#073361:0022
#0733c1:00000000000000000000001200000000
#073381:00000000000000000000000000520022
#073320:00000000000000000000000000120022
#0743c0:0012000000000000
#074380:0000002200000000
#074380:00000000000000000000001200000000
#0753c0:22
#074361:00000000000000000000001200000000
#075321:22
#0753c1:0012
#075381:00000000000000000000002200000000
#075360:00000000000000000000001200000000
#075320:0000000000000022
#0753c1:0000000000000012
#076381:0000002200000000
#076361:0000000000000012
#077321:0052
#079361:22
#076380:0000000000000012
#0773c0:0052
#079380:22
