This file was generated by Ched 2.7.0.0.
#TITLE ""
#ARTIST ""
#DESIGNER ""
#DIFFICULTY 0
#PLAYLEVEL
#SONGID ""
#WAVE ""
#WAVEOFFSET 0
#JACKET ""
#REQUEST "ticks_per_beat 480"
#00002: 4
#BPM01: 132
#00008: 01
#TIL00: ""
#VOLUME: ""
#HISPEED 00
#MEASUREHS 00
#0351f:11
#00212:14
#00218:0014
#00314:14
#0031a:0014
#00412:14
#0041a:0014
#0061a:14
#00614:0014
#00610:41
#00718:14
#00712:0014
#0081a:14
#01418:16
#01412:0016
#01518:16
#01512:0016
#01618:1616
#01612:00160016
#01610:41
#0201a:14
#02012:14
#02014:00000000000000000000003400000000
#0221a:14
#02213:00000014
#02214:00140000
#02219:0014
#02412:14
#02419:00000014
#02418:00140000
#02413:0014
#0261a:14140000
#02614:00001414
#02610:41
#02812:14140000
#02818:00001414
#0301a:1414
#03014:00140014
#03118:1414
#03112:00140014
#0321a:14
#03214:00140000
#03218:0014
#03212:00000014
#04314:00140000
#04318:0014
#04312:00000014
#0431f:21
#0431a:24
#0441a:14
#04416:00140014
#04412:0014
#0451a:14
#04514:00140000
#04518:0014
#04512:00000014
#04510:41
#0461a:14
#04616:00140000
#04714:00001414
#0471a:14140000
#04818:14140000
#04812:00001414
#05118:00140000
#05114:0014
#0511a:00000014
#05112:24
#05212:14
#05216:00140014
#0521a:0014
#05312:14
#05318:00140000
#05314:0014
#0531a:00000014
#05412:14
#05416:00140000
#05518:00001414
#05512:14140000
#05510:41
#05614:14140000
#0561a:00001414
#05712:1616
#05718:00160016
#05912:00140014
#0591a:2414
#06018:1414
#06014:00140014
#0621a:14
#06212:00140000
#06312:1414
#0631a:00140014
#06414:1414
#06418:00140014
#06512:14
#0651a:00140000
#06514:0014
#06518:00000014
#06510:41
#02318:14
#0231a:00343400
#02514:14
#02512:00343400
#03318:16
#03315:00363636
#04212:00000016
#05018:16
#05812:16
#06612:16
#06615:00363600
#01218:14
#0121a:00000034000034000034000000000000
#01314:14
#01312:00000034000034000034000000000000
#0101a:14
#01018:00000034000034000034000000000000
#01112:14
#01114:00000034000034000034000000000000
#0611a:14
#06112:00140000
#06118:0014
#06114:00000014
#01812:24
#0181a:24
#01818:00000000000000000000003400000000
#00158:00000016
#00952:00000014
#01758:00000016
#02552:00000014
#02554:64
#05055:00000016
#05058:56
#05855:00000016
#05852:66
#06655:00000016
#06652:66
#0685a:00000014
#02358:54
#03358:56
#04252:00000016
#01258:54
#01354:64
#0105a:54
#01152:64
#000380:16
#001380:00000026
#005320:1424
#008320:00000000000000001400003400003400
#009320:00000024
#0103a0:14
#010380:00000034000034000034000024000000
#011320:14
#011340:00000034000034000034000024000000
#012380:14
#0123a0:00000034000034000034000024000000
#013340:14
#013320:00000034000034000034000024000000
#017380:16000026
#0183a0:0014
#018380:00000000000000000000003400003400
#019380:00000024
#020320:0014
#020340:00000000000000000000003400003400
#021340:00000024
#023380:14
#0233a0:00343424
#025340:14
#025320:00343424
#027380:14000024
#0273a0:00343400
#029340:14000024
#029320:00343400
#033380:16
#033350:00363636
#034350:26
#035320:14
#036340:34
#037320:34
#038340:24
#0393a0:14
#040380:34
#0413a0:24
#046320:00001424
#049380:16260000
#049320:00001626
#050380:16
#050350:00000026
#0543a0:00001424
#058320:16
#058350:00000026
#0623a0:00001424
#066320:16
#066350:00363626
#0673a0:14
#0683a0:00000024
#069320:14
#070340:24
#071380:14
#0723a0:24
#0733a0:14
#074380:24
#075340:14
#076320:24
#077320:14
#079320:24
#0773a1:14
#0793a1:24
