This file was generated by Ched 2.7.0.0.
#TITLE ""
#ARTIST ""
#DESIGNER ""
#DIFFICULTY 0
#PLAYLEVEL
#SONGID ""
#WAVE ""
#WAVEOFFSET 0
#JACKET ""
#REQUEST "ticks_per_beat 480"
#00002: 4
#BPM01: 127
#00008: 01
#TIL00: ""
#VOLUME: ""
#HISPEED 00
#MEASUREHS 00
#01418:14
#01410:41
#01514:14
#01618:14
#01714:14
#02618:14
#02614:0014
#04218:14
#04312:14
#0441a:14
#04514:14
#00418:2616
#00410:41
#00512:1616
#00618:16
#00612:0016
#00718:16
#00712:0016
#00818:1616
#00912:1616
#0181a:14
#01912:14
#0201a:14
#02112:14
#02718:2616
#02710:41
#02812:1616
#02918:16
#02912:0016
#03112:1616
#03218:1616
#03312:16
#03318:0016
#03518:16
#03512:0016
#03712:16
#06012:0016
#06018:26
#0601f:21
#06118:16
#06112:0016
#06110:41
#06218:16
#06212:0016
#06418:0016
#06412:26
#06512:16
#06518:0016
#06612:16
#06618:0016
#06818:1616
#06912:1616
#04818:14
#04814:0014
#04918:16
#04912:0016
#04910:41
#05212:14
#0531a:14
#05412:14
#05518:14
#05614:14
#05718:14
#05814:14
#0591a:14
#05912:14
#0511f:11
#07312:0034
#03810:41
#000380:14
#001380:24
#002340:14
#003340:24
#0103a0:14
#0113a0:24
#012320:14
#013320:24
#022380:14
#023380:24
#024340:14
#025340:24
#030380:1626
#034320:1626
#036380:1626
#038380:14
#039380:24
#040340:14
#041340:24
#0463a0:1424
#047320:1424
#050380:16
#051380:26
#063380:1626
#067320:1626
#070380:16
#071380:26
#071320:0016
#072320:36
#073320:36003424
