This file was generated by Ched 2.7.0.0.
#TITLE ""
#ARTIST ""
#DESIGNER ""
#DIFFICULTY 0
#PLAYLEVEL
#SONGID ""
#WAVE ""
#WAVEOFFSET 0
#JACKET ""
#REQUEST "ticks_per_beat 480"
#00002: 4
#BPM01: 127
#00008: 01
#TIL00: ""
#VOLUME: ""
#HISPEED 00
#MEASUREHS 00
#0511f:11
#0511a:0000000000000012
#05112:0000001200000000
#0511c:00000012
#05114:00000012000000000000000000000000
#05116:12
#03917:00000013000000000000000000000000
#0391b:13000013
#03912:00131300
#0711b:0013
#07112:1300001300000000
#07118:00000013000000000000000000000000
#07116:0024
#0001b:13
#00015:0013
#00019:00000033000000000000000000000000
#00013:00000000000000000000003300000000
#0011b:13
#00112:0013
#00119:00000033000000000000000000000000
#00218:00000000000000000000001300000000
#0021b:1300001300000000
#00215:00000013000000000000000000000000
#00212:0013
#04115:0000001300000000
#04112:00130000
#0411b:00000013
#04118:0000000013000013
#01316:00000013000000000000000000000000
#01312:1313
#01317:0000001300000000
#0131b:0000000000001313
#01315:00000000000000000000000000000013
#0121b:00000000000000000000001300000000
#01217:0000001313000000
#01216:00000013000000000000000000000000
#01212:1300000000000013
#07315:0000000000130000
#07318:0000000000130000
#0731a:24140000
#07312:00000024000000002300000000000000
#0731b:0023
#07316:0000002400000000
#07218:00000013000000000000001300000000
#0721b:1313
#07015:00000013000000000000001300000000
#07012:1313
#0701a:24
#06915:0000000000000013
#06912:2400000000130000
#0691b:1300001300000000
#06918:0013000000002400
#06916:0024
#06914:00240000
#0681b:00130013
#06812:0000130013000024
#06814:00000024
#06816:0000000000240000
#06818:0024
#0681a:0000002400000000
#06715:0013001300130013
#06712:13131313
#0671b:0013001300130013
#06718:13131313
#06612:13000000000013000000001300000000
#06615:0013000013000000
#0661b:00000013000000000000000000000000
#06618:13000000000000000000001300000000
#0651b:00000013000000002300000013000000
#06512:1313
#06518:00130000000013000000000000000000
#06515:00000013000000000000230000000000
#06412:26000000000000000000001300000000
#06418:00130000000013000000001300000000
#0641b:00000013000000000013000000001300
#06415:00000013000000001300000000000000
#06318:0013001300130000
#0631b:13131300
#06312:0013001300130000
#06315:13131300
#0621b:00000000000000000000001300000000
#06218:00000013000000001300000000000000
#06215:13000000000000000000001300000000
#06212:00000013000000000000000000000000
#06112:00000013000000002300000013000000
#0611b:1313
#06115:00130000000013000000000000000000
#06118:00000013000000000000230000000000
#06110:41
#0601b:00000000000000000000001300000000
#06015:00130000000013000000001300000000
#06012:00000013000000000013000000001300
#06018:26000013000000001300000000000000
#0601f:21
#05912:00130000
#05915:13000023
#05918:00000023
#0581b:0013001313000000
#05812:13
#05715:13
#05718:0000001313000000
#05615:0013001313000000
#05618:13
#0561b:0013
#05515:13
#05518:0000001313000000
#05512:0013
#05415:00000000000000000000001300000000
#05418:0000000000130000
#05414:0000001200000000
#05416:00120000
#0541b:00000013
#00913:0000001500000000
#00912:0016000000001300
#00916:12120000
#0091b:00000013
#00918:1216121500000000
#03318:00130000000013000000001300000000
#0331b:00000013000000001300000000000000
#03312:13000000000000000000001300000000
#03315:00000013000000000013000000001300
#03816:0000001300000000
#0381b:00130000
#03812:13
#0381a:24
#03810:41
#04812:1300000013000013
#04817:0013
#0481b:00000000130000000000001300000000
#04814:0013001300000000
#04816:00130000
#04819:0013001300000000
#04716:0000001300000000
#0471b:00000000000000000000001300000000
#04715:0000000000130000
#04717:13000013000000001300000000000000
#04712:1313000000000000
#04719:00000000001300000000000000000000
#04714:00130000
#04612:00000000001300000000131300000000
#0461b:1300000013000013
#04614:00000013000000130000000000000000
#04619:0013001300000000
#04617:00130000
#04616:00130000000000000000000000001300
#04517:0013
#0451b:00000013000000000000000000000000
#04512:1313
#04518:16
#04415:0013000000160016
#04412:1300001600001600
#04418:00161600
#04212:13
#04215:00000000000000130000000000000000
#04218:0000001300000000
#0421b:00130000
#04318:00000000000000130000000000000000
#04315:0000001300000000
#04312:00130000
#0431b:13
#0401b:00000013000000000000000013000000
#04012:00130000
#04017:13
#03715:00000013000000000013000000000000
#0371b:1300001300000000
#03712:2400002400002400
#03716:0000000000000024
#03718:00000024000000000024000000000000
#03618:0000240000000013
#0361b:0000000000130000
#03612:1300001300000000
#03615:0013000000000000
#0361a:24
#03614:00000024
#03616:0024
#03417:1300000013000013
#03412:1300000013000013
#03419:0013001300001300
#03414:0013001300001300
#03416:0000130000130000
#0341b:0000130000130000
#0301b:1313
#03016:1313
#03014:0013001300000000
#03012:00130000
#03019:0013001300000000
#03017:00130000
#0321b:00000013000000001300000013000000
#03218:1300000000130000
#03215:0000001300230000
#03212:00002323
#03112:00000013000000000000001300000000
#03115:0013
#03118:23000000000000000000001300000000
#0311b:00000013000000000000000000000000
#02812:00000013000000001300000013000000
#02815:1300000000130000
#02818:0000001300230000
#0281b:00002323
#0271b:00000013000000000000001300000000
#02718:0013
#02715:23000000000000000000001300000000
#02712:00000013000000000000000000000000
#02710:41
#0261b:0000001313000000
#02619:00000013000000000000000000000000
#02614:00240000
#02616:0024
#02612:24
#02615:0000002400000000
#02613:0024000000000000
#0251b:00131300
#02512:13000013
#0241b:1300000000000013
#02415:0000000000130000
#02412:0013
#02418:00000013
#02414:00130000
#02218:13
#02215:0013
#0221b:00000013
#02212:00130000
#02316:0013
#02319:00000013
#02314:00130000
#02317:13
#02115:13000000000000000000000000000013
#0211b:13000013
#02112:00000000000000130000000000000000
#02118:0013000000000013
#02012:0000001300000013
#02015:0013000000130000
#01915:00000000001300000000000000000013
#01918:13000013000000130000000000001300
#01912:0013000000001300
#01812:0013
#01815:23000000000013000000001300001300
#0181b:00001300000000001300000000130000
#01818:0000130000130000
#01718:13000000000000000000000000000013
#01712:1300000000001313
#0171b:00000000000000130000000000000000
#01715:0013000000000000
#0161b:0000001300000013
#01618:0013000000130000
#01518:00000000001300000000000000000013
#01515:13000013000000130000000000001300
#0151b:0013000000001300
#04912:23000034150000002600003514000000
#04919:00000035000000000000000015000000
#0491a:00000000140000000000003400000000
#0491b:0023
#04918:26
#04910:41
#01112:00000013
#0111b:1313
#01117:00000013000000000000000000000000
#01116:0000001300000000
#01012:00000000000000000000001300000000
#01016:0000001313000000
#01017:00000013000000000000000000000000
#0101b:1300000000000013
#00812:0000130000130000
#0081b:00130000
#00818:0000001300000013
#00815:00001313
#00718:0013000000001300
#00715:0000001300001300
#00712:13131300
#0071b:13131300
#05318:0000000000000012
#0531a:00000000000000000000001200000000
#05312:0000001200000000
#05314:00000012000000000000000000000000
#0521c:00000012
#0521a:0000000000120000
#05216:0000001200000000
#05214:00000012000000000000000000000000
#03512:00131313
#03518:0000130000000013
#0351b:0000001313001300
#03515:0000000000130000
#0141b:0013
#01418:23000000000013000000001300000013
#01412:0013000013000013
#01415:0000130000130000
#01410:41
#00612:00000013000000000000001300001300
#0061b:00000013000013000000001300000000
#00618:00130000000000001300000000000000
#00615:13000000000000000013000000000000
#0051b:00000013000000001300000013000000
#00512:1300000000130000
#00515:00000013000000001300000013000000
#00518:00130000000013000000130000000000
#00415:00000013000000000013000000001300
#00412:23000000000000000000001300000000
#00418:00130000000013000000001300000000
#0041b:00000013000000001300000000000000
#00410:41
#02915:00130000000013000000001300000000
#02912:00000013000000001300000000000000
#0291b:1300000000130000
#02918:00000013000000001300000000001300
#05012:23000033000033000000000000000000
#05018:26000036000036000000000000000000
#00312:2424
#00316:0024002400000000
#0031a:00242400
#07352:00005336
#07358:0000000000234600
#0735b:0063
#07355:0000000000230000
#06852:33
#06858:33
#06552:13000013
#0655b:00006313
#06555:00000053000000000000530000000000
#0635b:00006343
#06355:00006343
#06358:0000000000230000
#06352:0000000000230000
#0615b:13000013
#06152:00005313
#06158:00000063000000000000630000000000
#0455b:00000063000000000000000013000000
#04556:00000013
#04557:0053
#04552:5353
#03556:43
#0355b:43
#03057:00000013
#03052:00000013
#0305b:0063
#03056:0063
#0505a:00000014
#05052:23000018
#05058:26
#01356:00000063000000000000000013000000
#01352:5353
#01157:00000053000000000000000013000000
#0115b:6363
#00852:13
#0085b:13
#00354:00000014
#00358:00000014
#00352:0054
#0035a:0064
#02657:00000013
#02652:00000014
#02656:0064
#0265b:0063
#05958:00000013
#05955:63000013
#05952:00230000
#07156:0064
#0715b:0063
#07158:00000053000000000000000000000000
#07152:53
#06452:16000000000000000000006300000000
#06455:00000053000000001300000000000000
#06058:16000063000000001300000000000000
#0605b:00000000000000000000005300000000
#03252:00000013
#0325b:00000053000000000000000013000000
#0495b:0023
#04952:23552664
#04958:26
#04959:00000065
#0495a:00540000
#0285b:00000013
#02852:00000063000000000000000013000000
#03957:00000053000000000000000000000000
#0395b:63
#03952:0053
#0005b:53
#00055:0053
#0015b:53
#00152:0053
#00258:00000000000000000000006300000000
#00255:00000053000000000000000000000000
#00252:0063
#0025b:53
#0125b:00000000000000000000006300000000
#01257:0053
#01256:00000063000000000000000000000000
#01252:53
#07258:00000053000000000000005300000000
#0725b:6363
#07055:00000063000000000000006300000000
#07052:5353
#06755:0000000000230023
#06752:00005353
#0675b:0000000000230023
#06758:00005353
#0665b:00000063000000000000000000000000
#06652:00000000000000000000005300000000
#06655:0013
#06658:13000000000000000000005300000000
#0625b:00000000000000000000006300000000
#06258:00000053000000001300000000000000
#06255:13000000000000000000006300000000
#06252:00000053000000000000000000000000
#0585b:0063
#05852:53
#05755:63
#05758:0053
#05658:53
#0565b:0063
#05555:63
#05552:0053
#00953:0000002500000000
#00952:0026000000001300
#00956:62620000
#0095b:00000013
#00958:5226522500000000
#03355:00000063000000000000000000000000
#03358:00000000000000000000005300000000
#03856:0000002300000000
#03852:53
#0485b:00000000000000000000005300000000
#04852:0053
#04756:0000006300000000
#0475b:00000000000000000000005300000000
#04757:0053
#0465b:0063
#04452:53
#04455:0023000000000000
#04252:53
#0435b:53
#0405b:00000063000000000000000000000000
#04057:53
#03457:0000000053000023
#03452:0000000053000023
#03459:00000063
#03454:00000063
#03456:0000000000230000
#0345b:0000000000230000
#03152:00000053000000000000005300000000
#03158:00000000000000000000005300000000
#0315b:00000063000000000000000000000000
#0275b:00000063000000000000006300000000
#02755:00000000000000000000006300000000
#02752:00000053000000000000000000000000
#0255b:0063
#02552:63
#02258:53
#02255:0063
#02356:0053
#02357:63
#02152:00000000000000630000000000000000
#01958:00000000000000630000000000000000
#0175b:00000000000000530000000000000000
#01052:00000000000000000000005300000000
#01056:0063
#01057:00000053000000000000000000000000
#0105b:63
#00755:00000063
#00752:0053
#00758:00000053
#0075b:0063
#0055b:00000013
#00555:00000053000000000000000013000000
#0545b:00000013
#0245b:53
#01555:00000000000000530000000000000000
#0065b:00000000000000000000006300000000
#00652:00000053000000000000000000000000
#00458:00000000000000000000006300000000
#00455:00000053000000000000000000000000
#02958:00000053000000000000000000000000
#02955:00000000000000000000006300000000
#0003b0:13
#000390:00000033000000000000000000000000
#000380:0000002300000000
#000350:0013
#000330:00000000000000000000003300000000
#000320:0000000000000023
#0013b0:13
#001390:00000033000000000000000000000000
#001380:0000002300000000
#001320:0013
#002360:23
#0023b1:13
#002381:00000023000000000000000000000000
#002350:00000013000000000000000000000000
#002320:0000002300000000
#002320:0013
#002350:00000000000000000000002300000000
#002381:00000000000000000000001300000000
#0033b1:23
#003321:0014
#003341:00000024
#0033a0:0014
#003380:00000024
#004350:00000013000000000000000000000000
#004320:0000002300000000
#004380:00000000000000000000001300000000
#0043b0:0000000000000023
#005350:00000013000000000000000000000000
#005320:0000002300000000
#006320:00000013000000000000000000000000
#006350:0000002300000000
#0063b0:00000000000000000000001300000000
#006380:0000000000000023
#007320:0013
#007350:00000033
#008320:23
#0073b1:0013
#007381:00000033
#0083b1:23
#009361:12322200
#009321:0056000000000000
#009331:0000005500000000
#009380:1256325522000000
#0103b0:1300002300000000
#010370:00000033000000000000000000000000
#010360:0000000013000023
#010320:00000000000000000000003300000000
#0113b0:1300002300000000
#011370:00000033000000000000000000000000
#0113b0:0013
#011370:00000023
#012320:1300002300000000
#012360:00000033000000000000000000000000
#012370:0000000013000023
#0123b0:00000000000000000000003300000000
#013320:1300002300000000
#013360:00000033000000000000000000000000
#013320:0013
#013360:00000023
#015350:00000000000000130000000000000000
#015320:00000023
#016320:1323000000000000
#016350:0000132300000000
#016320:0000000013230000
#016350:0000000000001323
#017380:00000013002300000000000000000000
#017321:00000000001300230000000000000000
#0173b0:00000000000000130000000000000000
#017380:00000023
#019380:00000000000000130000000000000000
#0193b0:00000023
#0203b0:1323000000000000
#020380:0000132300000000
#0203b0:0000000013230000
#020380:0000000000001323
#021350:00000013002300000000000000000000
#0213b1:00000000001300230000000000000000
#021320:00000000000000130000000000000000
#021350:00000023
#022380:13
#0223b0:0023
#022351:0013
#023321:23
#023370:13
#0233b0:0023
#023361:0013
#024321:23
#0243b0:13
#024370:0023
#025320:13
#025360:0023
#0253b1:0013
#026371:23
#0263b1:0013
#026371:00000023
#026360:0014
#026320:00000024
#027380:00130000000023000000000000000000
#0273b0:00000033000000000000000000000000
#027321:00000013000000000000000000000000
#027351:0000002300000000
#027321:00000000000000000013000000002300
#027351:00000000000000000000003300000000
#0273b0:00000000000000000000001300000000
#027380:0000000000000023
#028380:00130000000000000000000000000000
#0283b0:00000023000000000000000000000000
#028321:00000013000000000000000000000000
#028351:0000002300000000
#029381:00000013000000000000000000000000
#0293b1:0000002300000000
#029351:00000000000000000000001300000000
#029321:0000000000000023
#0303b1:0013
#030371:00000023
#030360:0013
#030320:00000023
#031350:00130000000023000000000000000000
#031320:00000033000000000000000000000000
#0313b1:00000013000000000000000000000000
#031381:0000002300000000
#0313b1:00000000000000000013000000002300
#031381:00000000000000000000003300000000
#031320:00000000000000000000001300000000
#031350:0000000000000023
#032350:00130000000000000000000000000000
#032320:00000023000000000000000000000000
#0323b1:00000013000000000000000000000000
#032381:0000002300000000
#033351:00000013000000000000000000000000
#033321:0000002300000000
#033381:00000000000000000000001300000000
#0333b1:0000000000000023
#034321:0000000013000053
#034361:0000000000530000
#034341:00000033
#035361:23
#034370:0000000013000053
#0343b0:0000000000530000
#034390:00000033
#0353b0:23
#037370:00000013
#0373b0:0000000000000023
#038320:13000023
#038360:0000005300000000
#038371:00000013
#0383b1:0000000000000023
#038360:0000000000000013
#039320:23
#0393b1:1300002300000000
#039371:00000033000000000000000000000000
#039350:00000000000013230000000000000000
#039381:00000000000000132300000000000000
#039320:0013
#039360:0000000000000023
#0393b1:00000000000000000000000000001323
#039320:00000000000000000000000000000013
#040320:23
#040371:1300002300000000
#0403b1:00000033000000000000000000000000
#040320:0000000000000000000000001353535353535353535353535353535323000000
#040330:00000000000000000000000000000000000000000000000000530053005300530053005300530053005300530053005300530053005300530000000000000000
#040381:00000000000000000000000000001323
#040350:00000000000000000000000000000013
#041350:23
#0413b1:1300002300000000
#041371:00000033000000000000000000000000
#041321:0000000013000023
#041361:00000000000000000000003300000000
#042321:13
#042361:00230000
#0423b1:0000000013230000
#042350:0000000000132300
#042381:0000000000001323
#042320:0000000000000013
#043320:23
#0433b1:13
#043371:00230000
#043321:0000000013230000
#043380:0000000000132300
#043351:0000000000001323
#0433b0:0000000000000013
#0443b0:23
#044321:13230000
#044351:0053000000000000
#045321:13
#045361:00000023000000000000000000000000
#0453b0:00000013000000000000000000000000
#045370:0000002300000000
#045321:0000001333000000
#045361:00000023
#045370:0013
#0453b0:00000023
#0463b0:0013
#046370:00000000000000000000332300000000
#047360:0000001300000000
#047320:0023
#047371:0013
#0473b1:0000000000230000
#0473b1:00000000000000000000001300000000
#048371:23
#048321:0013
#048361:00000000000000000000002300000000
#0483b0:00000000000000000000001300000000
#048370:0000000000000023
#049380:16
#049390:00000035000000000000000000000000
#0493a0:00540000
#0493b0:0000002300000000
#049321:13000034550026000000000000000000
#049321:00000000000000001600003554002300
#0493b0:0013
#0493a0:00000000000000000000003400000000
#049390:00000055
#049380:0000000000000026
#050380:16000036000036000000000000000000
#0503a0:00003424
#050321:13000033000033003800000028000000
#0513c1:1222
#051320:0012
#052320:22
#052381:1222
#052360:0012
#053360:22
#0533c1:1222
#053320:0012
#054320:22
#054381:1222
#054320:0000000012220000
#055350:13
#055320:0033
#056350:23
#056381:13
#0563b1:0033
#057381:23
#057350:13
#057320:0023
#057381:0013
#0583b1:23
#058320:13
#058350:0023
#0583b1:0013
#059381:23
#059350:1300000000000000000000000000000033525452545254522300000000000000
#059320:00530000
#059381:00001323
#059371:0000000000000000000000000000000000540054005400540000000000000000
#059391:00000000000000000052525200000000
#060381:00000013000000000000000000000000
#0603b1:0000002300000000
#0603b1:00000000000000000000001300000000
#060381:0000000000000023
#061381:00000013000000000000000000000000
#0613b1:0000002300000000
#061321:0013
#061351:0000000000230000
#061380:0000000000130000
#0613b0:00000023
#062380:00130033000000000000000000000000
#0623b0:0000002300000000
#062321:00000013000000000000000000000000
#062351:0000002300000000
#062351:00000000000000000013003300000000
#062321:0000000000000023
#0623b0:00000000000000000000001300000000
#062380:0000000000000023
#0633b0:00001323
#063380:0000000000530000
#063351:00001323
#063321:0000000000530000
#064351:00000013000000000000000000000000
#064321:0000002300000000
#064321:00000000000000000000001300000000
#064351:0000000000000023
#065351:00000013000000000000000000000000
#065321:0000002300000000
#0653b1:0013
#065381:0000000000230000
#065350:0000000000130000
#065320:00000023
#0663b0:00000013000000000000000000000000
#066380:0000002300000000
#066380:00000000000000000013003300000000
#0663b0:0000000000000023
#066321:00000000000000000000001300000000
#066351:0000000000000023
#067321:00001333
#067351:0000000000530053
#068321:23
#067380:00001333
#0673b0:0000000000530053
#068380:23
#070320:1300002300000000
#070350:00000033000000000000000000000000
#0703a1:14
#071381:26
#070320:0000000013000023
#070350:00000000000000000000003300000000
#071320:13
#071350:00000023000000000000000000000000
#071381:00000013000000000000000000000000
#0713b1:0000002300000000
#0713b1:0013
#071381:00000023
#071360:0014
#071320:0000000000000034
#072320:34
#073320:26
#0723b1:1300002300000000
#072381:00000033000000000000000000000000
#0723b1:0000000013000023
#072381:00000000000000000000003300000000
#073320:00001326
#073350:0000000000530000
#0733b1:0013
#073381:0000000000532600
