This file was generated by Ched 2.7.0.0.
#TITLE ""
#ARTIST ""
#DESIGNER ""
#DIFFICULTY 0
#PLAYLEVEL
#SONGID ""
#WAVE ""
#WAVEOFFSET 0
#JACKET ""
#REQUEST "ticks_per_beat 480"
#00002: 4
#BPM01: 127
#00008: 01
#TIL00: ""
#VOLUME: ""
#HISPEED 00
#MEASUREHS 00
#00112:0014
#0011a:14
#00118:00000034000000000000000000000000
#0101b:13000000000000000000003300000000
#01017:00000033000000001300000000000000
#01518:00001300000000130000000000000000
#01515:00000013000000000000000000001300
#01512:13
#01318:0000000000000013
#01312:13
#01316:00000033000000001300000000000000
#01712:13
#01715:00000013000000000000000000001300
#01718:0013000000000000
#0171b:00000000000000130000000000000000
#0281b:13000023
#02815:00000013000000000000230000000000
#02818:0023
#03518:0000001300000013
#03515:00001313
#03512:0000000000130000
#04812:0013000000000013
#04815:00130000
#04818:0000001300000000
#0481b:0000000013000013
#06015:00130000000000001300000000000000
#0601b:00000013000000000000000000000000
#06018:23000000000000000013000000000000
#06012:00000000000000000000001300000000
#0601f:21
#0631b:0000001313000000
#06312:1300000000130000
#06318:0000130000130000
#06315:0013000013000000
#0021b:13
#00212:0013
#00912:0013000000001300
#0091b:0013000000001300
#00915:13130000
#00913:0000001300000000
#00918:13130000
#0091a:0000001300000000
#0111b:13
#01117:00000033000000001300000000000000
#01615:0013001300000013
#0161b:0000000000130000
#01618:13001313
#01612:00130000
#02215:0013
#02218:13
#02718:0013
#02715:00000013000000000000000000000000
#02712:00000000000000000000001300000000
#0271b:23
#02710:41
#03015:13131300
#03018:0013001300000000
#0301b:0013
#03918:13000000000000130000000000001300
#03912:0013
#03915:00000000000013000000000000000013
#04218:0000001300000013
#04212:1300000000130000
#04215:00001313
#0431b:1300000000130000
#04315:0000001300000013
#04318:00001313
#04412:1313
#0441b:0000001300000013
#04418:0000000000130000
#04415:00000013
#0471b:13000000000000000000001300000000
#04718:0013131300000000
#04715:13000013001300000000130000000000
#06618:13000000000000000013000000000000
#06612:13000000000000000000001300000000
#06615:0013000013000000
#0661b:00000013000000000000000000000000
#0671b:1313
#06712:0000001300001300
#06718:0013000000001300
#06715:00130000
#02912:13
#02918:00130000000000001300001300000000
#02915:00000013000000000000130000000000
#0001a:14
#00012:0014
#00018:00000034000000000000000000000000
#00014:00000000000000000000003400000000
#0041b:13
#00418:00000013000000000000000000000000
#00412:0013
#00415:00000000000000000000001300000000
#0041a:00330000000000000000000000000000
#00413:00000000000000000033000000000000
#00410:41
#00515:0013
#00518:00000013000000000000130000000000
#00512:00000013
#0051b:13
#0051a:00330000000000000000000000000000
#0071b:13
#00715:00130000
#00712:0000001300000000
#00718:0013000000000000
#00615:0013
#00612:00000000000000000000001300000000
#00618:13
#0061b:00000013000000000000000000000000
#00614:00000000000000000033000000000000
#00619:00330000000000000000000000000000
#00818:0000001300130000
#00812:00000013
#0081b:0000000000000013
#00815:0013
#01212:13000000000000000000003300000000
#01216:00000033000000001300000000000000
#0141b:0013000000000013
#01418:0000130000130000
#01415:23000000000013000000001300000000
#01412:0013
#01410:41
#01815:0000130000130013
#01812:0013000000000000
#01818:23000000000013000000001300130000
#0181b:0013
#01915:00001300000000130000000000000000
#01918:00000013000000000000000000001300
#0191b:13
#0211b:13
#02115:0013000000000000
#02118:00000013000000000000000000000000
#02112:00000000000000130000000000000000
#02018:0013001300000013
#02012:0000000000130000
#02015:13001313
#0201b:00130000
#0231b:13
#02312:0013
#02418:13
#0241b:00130000
#02415:0013
#02412:00000013
#02512:0013
#0251b:13
#02518:00130000
#03212:13000023
#03218:00000013000000000000230000000000
#03215:0023
#03115:0013
#03118:00000013000000000000000000000000
#0311b:00000000000000000000001300000000
#03112:23
#03418:13131300
#03415:0013001300001300
#0341b:00000013
#0331b:13
#03315:00130000000000001300001300000000
#03318:00000013000000000013000000000000
#0381b:13
#03817:0000001300000000
#03815:0000000000000013
#03810:41
#0401b:13
#04018:00000013000000000000000000000013
#04015:0000000000000013
#04112:13
#0411b:0013
#04115:00000033000000000000000000000000
#04118:00000000000000000000003300000000
#04512:13
#04515:00000033000000001300000000000000
#0451b:0013
#04612:1300000000000013
#0461b:0013000000000000
#04615:0000131313000000
#04618:00000000001300130000000000001300
#04919:0000003515000000
#0491a:00000034000000000000003414003400
#04912:23000000000000001300003415003600
#0491b:23
#04910:41
#05012:17000035000035000000000000000000
#0501b:13
#0501a:00000034000000000000000000000000
#05019:0000003500000000
#0551b:0013
#05518:13
#05615:13
#05712:0013
#05715:13
#05818:13
#06118:13
#06115:00130000000000000000000023000000
#0611b:00000013000000000000230000000000
#06112:0023
#06110:41
#06215:00000013000000001300000000000000
#06218:13000000000000000000001300000000
#06418:00130000000000001300001300000000
#06415:23000013000000000013000000000000
#06515:13000013000000000000000000000000
#06518:00130000000000002300000000000000
#0651b:00000023
#06512:0000000000230000
#07016:0000000000140000
#0701a:24
#07216:0000001400000000
#07212:14
#0511f:11
#0031a:24242400
#00312:0024002424000000
#07318:2400002400000000
#07314:00000024000000000000000000000000
#0731b:0023
#07312:0023
#03716:00000024000000000024000000000000
#03712:0000002400000024
#0371a:24000024
#06914:00240000
#06916:0024
#06918:00000024
#06912:24
#07116:0024
#0681a:0000002400000000
#06814:0024
#06819:0000000000240000
#06813:00000024
#06818:0000000000000024
#0261a:24242400
#02612:0024002424000000
#0361b:23
#03612:00000023
#03613:0023
#0361a:00230000
#03615:23
#03618:00000023
#03619:0023
#03614:00230000
#05915:00000023
#05918:00000023
#00152:0054
#0015a:54
#0105b:63
#01057:0053
#0035a:0064
#00358:00000014
#00352:0054
#00354:00000014
#0285b:00000013
#02855:00000063000000000000000000000000
#00858:13
#00855:13
#0025b:53
#00252:0063
#0095b:0023000000001300
#00952:0023000000001300
#00955:63630000
#00953:0000002300000000
#00958:53530000
#0095a:0000002300000000
#0115b:63000013
#01157:0053
#02255:0063
#02258:53
#03958:53
#03952:0053
#0435b:53
#04252:53
#04452:53
#0475b:00000000000000000000005300000000
#04758:0000005300000000
#06355:00006343
#06352:0000000000230000
#0635b:00006343
#06358:0000000000230000
#07156:0064
#0735b:0063
#07352:00005316
#07358:00000016
#0005a:54
#00052:0064
#0045b:63
#00458:00000053000000000000000000000000
#00452:0053
#00455:00000000000000000000006300000000
#00552:00000013
#0055b:63
#00558:00000053000000000000000000000000
#00655:0063
#00652:00000000000000000000005300000000
#00658:53
#0065b:00000063000000000000000000000000
#01252:53
#01256:0063
#01352:53000013
#01356:0063
#01558:00000000000000630000000000000000
#0175b:00000000000000530000000000000000
#01955:00000000000000530000000000000000
#02152:00000000000000630000000000000000
#0235b:63
#02352:0053
#02458:53
#0245b:00630000
#02455:0063
#02452:00000053
#02552:0053
#0255b:63
#02558:00530000
#0265a:0064
#02652:0054
#02658:00000014
#02654:00000014
#02755:00000063000000000000000000000000
#02752:00000000000000000000005300000000
#02955:00000063000000000000000000000000
#02958:00000000000000000000005300000000
#03055:0063
#03052:00000013
#0305b:0063
#03058:00000013
#03158:00000053000000000000000000000000
#0315b:00000000000000000000006300000000
#03258:00000053000000000000000000000000
#03252:00000013
#03358:00000053000000000000000000000000
#03355:00000000000000000000006300000000
#0345b:00000063
#03458:0053
#03455:00000063
#03558:13
#03552:13
#0385b:63
#03857:0000002300000000
#0405b:63
#04058:00000053000000000000000000000000
#04152:53
#0415b:0063
#04552:53000013
#04555:0063
#0455b:0063
#04558:00000013
#04655:0063
#0485b:0063
#05058:00000016
#0505b:23
#05052:27000016
#0495b:63
#0495a:00000064
#04959:0025
#04952:00002355
#0555b:0063
#05558:53
#05655:63
#05752:0053
#05755:63
#05858:53
#05958:00000013
#05955:00000013
#0605b:00000053000000000000000000000000
#06052:00000000000000000000006300000000
#0615b:00000053000000000000000000000000
#06155:00000013
#06255:00000063000000000000000000000000
#06258:00000000000000000000005300000000
#0655b:00000013
#06555:00000053000000000000000000000000
#06455:00000053000000000000000000000000
#06458:00000000000000000000006300000000
#0665b:00000063000000000000000000000000
#06652:00000000000000000000005300000000
#06758:00000053
#0675b:0063
#06752:00000053
#0685b:13
#06855:13
#07056:0000000000240000
#0705a:64
#07256:0000002400000000
#07252:54
#0003a0:14
#000380:00000034000000000000000000000000
#000370:0000002400000000
#000320:0014
#000340:00000000000000000000003400000000
#000350:0000000000000024
#0013a0:14
#001380:00000034000000000000000000000000
#001370:0000002400000000
#001320:0014
#001350:00000024
#0023b0:13
#002380:00000023000000000000000000000000
#002320:0013
#002350:00000000000000000000002300000000
#0033a0:0014
#003380:00000024
#003321:0014
#003341:00000024
#0043b1:1300002300000000
#0043a1:00330000000000000000000000000000
#004381:00000033000000000000000000000000
#004321:0000000013000023
#004331:00000000000000000033000000000000
#004351:00000000000000000000003300000000
#0053b1:1300002300000000
#0053a1:00330000000000000000000000000000
#005381:00000033000000000000000000000000
#006381:1300002300000000
#006391:00330000000000000000000000000000
#0063b1:00000033000000000000000000000000
#006351:0000000013000023
#006341:00000000000000000033000000000000
#006321:00000000000000000000003300000000
#007381:00001333
#008381:23
#007350:00000013
#008350:23
#009350:13332300
#009320:0053000000000000
#009330:0000005300000000
#009381:13332300
#0093b1:0053000000000000
#0093a1:0000005300000000
#0103b1:13000000000000000000003300003300
#010371:00000033000033003300000000000000
#0113b1:33000023
#011371:00000033000033003300000000000000
#012321:13000000000000000000003300003300
#012361:00000033000033003300000000000000
#013321:33000023
#013361:00000033000033003300000000000000
#015381:00000000001300330000000000000000
#0153b1:00000023
#0173b1:00000000001300330000000000000000
#017381:00000023
#019351:00000000001300330000000000000000
#019321:00000023
#021321:00000000001300330000000000000000
#021351:00000023
#022381:13
#0223b1:00230000
#022351:0013
#022321:00000023
#0233b1:13
#023381:00230000
#023321:0013
#023351:00000023
#024381:1323
#0243b1:00330000
#024350:0013
#024320:00000033
#025350:23
#0253b1:1323
#025381:00330000
#025320:0013
#025350:00000023
#0263a0:0014
#026380:00000024
#026321:0014
#026341:00000024
#027351:00130033000000000000000000000000
#027321:0000002300000000
#027321:00000000000000000013003300000000
#027351:0000000000000023
#028351:00130033000000000000000000000000
#028321:0000002300000000
#029351:00000013000000000000000000000000
#029321:0000002300000000
#029381:00000000000000000000001300000000
#0293b1:0000000000000023
#030351:0013
#030321:00000023
#0303b0:0013
#030380:00000023
#031380:00130033000000000000000000000000
#0313b0:0000002300000000
#0313b0:00000000000000000013003300000000
#031380:0000000000000023
#032380:00130033000000000000000000000000
#0323b0:0000002300000000
#033380:00000013000000000000000000000000
#0333b0:0000002300000000
#033350:00000000000000000000001300000000
#033320:0000000000000023
#034380:0013
#0343b0:00000033
#035380:23
#034351:00000013
#035321:23
#0383b1:13000023
#038371:0000005300000000
#039381:13
#0393b1:00000023000000000000000000000000
#039321:0013
#039351:00000023
#0403b1:1300000000000000000000003353535353535353535353532300000000000000
#040381:00000033000000000000000000000000
#0403a1:00000000000000000000000000000000000000000000000000530053005300530053005300530053005300530053005300000000000000000000000000000000
#041321:13
#041351:00000033000023000000000000000000
#0413b1:0013
#041381:00000000000000000000003300002300
#042321:13
#042351:00230000
#0433b1:13
#043381:00230000
#044321:13
#044351:00230000
#045321:13000023
#045351:00000033000033003300000000000000
#0453b0:0013
#045380:00000023
#046350:0013
#046320:00000000000000000000332300000000
#047380:0000001300000000
#0473b0:0023
#0473b0:00000000000000000000001300000000
#048370:23
#0483b0:0013
#048380:00000000000000000000002300000000
#0493b0:13
#0493a0:00000034000000000000003454003400
#049390:0000003535000000
#0503b0:33
#0503a0:00000034000000000000000000000000
#050390:0000003500000000
#050380:00003626
#049321:13000033000033003300003455003600
#050321:37000035000035003600000026000000
#051381:12
#0513c1:0022
#052321:12
#052361:0022
#0523a0:00001222
#053360:12
#053320:0022
#0543c0:12
#054380:0022
#054341:00001222
#055381:13
#0553b1:0033
#056381:23
#056350:13
#056320:0023
#056381:00001323
#057351:13
#057321:0033
#058351:23
#058380:13
#0583b0:0023
#058351:00001323
#0593b1:13
#059381:00003323
#059320:13
#059350:00003323
#0603b0:00000013000000000000000000000000
#060380:0000002300000000
#060320:00000000000000000000001300000000
#060350:0000000000000023
#0613b0:00000013000000000000000000000000
#061380:0000002300000000
#062350:00130033000000000000000000000000
#062320:0000002300000000
#062380:00000000000000000013003300000000
#0623b0:0000000000000023
#063350:00001323
#063320:0000000000530000
#0633b1:00001323
#063381:0000000000530000
#064351:00000013000000000000000000000000
#064321:0000002300000000
#064381:00000000000000000000001300000000
#0643b1:0000000000000023
#065351:00000013000000000000000000000000
#065321:0000002300000000
#0663b1:00000013000000000000000000000000
#066381:0000002300000000
#066321:00000000000000000000001300000000
#066351:0000000000000023
#0673b1:0013
#067381:00000033
#0683b1:23
#067320:00000013
#068350:23
#0703a0:14
#070360:0000000000540000
#0713a0:00240000
#071360:0014
#071320:0000000000000034
#072320:34000024
#072360:0000005400000000
#0733b0:0013
#073380:00000026
#073321:00001326
