This file was generated by Ched 2.7.0.0.
#TITLE ""
#ARTIST ""
#DESIGNER ""
#DIFFICULTY 0
#PLAYLEVEL
#SONGID ""
#WAVE ""
#WAVEOFFSET 0
#JACKET ""
#REQUEST "ticks_per_beat 480"
#00002: 4
#BPM01: 127
#00008: 01
#TIL00: ""
#VOLUME: ""
#HISPEED 00
#MEASUREHS 00
#00017:00000012000000000000001200000000
#0001c:1212
#00012:1212
#00016:0000001200000000
#00018:0000000000000012
#04012:13
#04016:00000000000000000000000000000013
#04014:00130000
#0401b:00000013000000000000130000000000
#04019:00001313
#04017:0000000000000013
#00112:1212
#0011c:1212
#00118:00000012
#00117:00000012000000000000000000000000
#00116:0000001200000000
#00312:140000000000000000260000243400003400000000000000
#00316:000000000000000000000000000000000000000000000000000000000000000000000000000000000000000000000000000000000000000000000000000000000000000000000000000000000000000000000000000000000000000000000000000000000000000000000000000000000000000000000000000000000000000000000000000000000000000000000000000000000000000000000000000000000000000000000000000000000000000000000000000000000000000000000000000000000000000000000000000000000000000000000000000000000000000000000000000000000000000000000000260000000000000000000000000000000000000000000000000000000000000000000000000000000000000000000000000000000000000000000000000000000000000000000000000000000000000000000000000000000000000000000000000000000000000000000000000000000000000000000000140000000000000000000000000000000000000000000000000000000000000000000000000000000000000000000000000000000000000000000000000000000000000000000000000000000000000000000000000000000000000000000000000000000000000000000000000000000000000000000000000000000000000000000000000000000000000000000000000000000000000000000000000000000000000000000000000000000000000000000000000000000000000000000000000000000000000000000000000000000000000000000000000000000000000000000000000000000000000000000000000000000000000000000000000000000000000000000000000000000000000000000000000000000000000000000000000000000000000000000000000000000000000000000000000000000000000000000000000000000000000000000000000000000000000000000000000000000000000000000000000000000000000000000000000000000000000000000000000000000000000000000000000000000000000000000000000000000000000000000000000000000000000000000000000000000000000000000000000000000000000000000000000000000000000000000000000000000000000000000000000000000000000000000000000000000000000000000000000000000000000000000000000000000000000000000000000000000000000000000000000000000000000000000000000000000000000000000000000000000000000000000000000000000000000000000000000000000000000000000000000000000000000000000000000000000000000000000000000000000000000000000000000000000000000000000000000000000000000000000000000000000000000000000000000000000000000000000000000000000000000000000000000000000000000000000000000000000000000000000000000000000000000000000000000000000000000000000000000000000000000000000000000000000000000000000000000000000000000000000000000000000000000000000000000000000000000000000000000000000000000000000000000000000000000000000000000000000000000000000000141400000000000000000000000000000000000000000000000000000000000000000000000000000000000000000000000000000000000000000000000000000000000000000000000000000000000000000000000000000000000000000000000000000000000000000000000000000000000000000000000000000000000000000000000000000000000000000000000000000000000000000000000000000000000000000000000000000000000000000000000000000000000000000000000000000000000000000000000000000000000000000000000000000000000000000000000000000000000000000000000000000000000000000000000000000000000000000000000000000000000000000000000000000000000000000000000000000000000000000000000000000000000000000000000000000000000000000000000000000000000000000000000000000000000000000000000000000000000000000000000000000000000000000000000000000000000000000000000000000000000000000000000000000000000000000000000000000000000000000000000000000000000000000000000000000000000000000000000000000000000000000000000000000000000000000000000000000000000000000000000000000000000000000000000000000000000000000000000000000000000000000000000000000000000000000000000000000000000000000000000000000000000000000000000000000000000000000000000000000000000000000000000000000000000000000000000000000000000000000000000000000000000000000000000000000000000000000000000000000000000000000000000000000000000000000000000000000000000000000000000000000000000000000000000000000000000000000000000000000000000000000000000000000000000000000000000000000000000000000000
#0031a:000000000000000000140000240034000034000000000000
#00318:26
#00314:00260000
#00416:13130013000000001300001300000000
#0041b:00000013000000001313001300000000
#00417:00000000001313000000000000000000
#00412:00000000000000000000000000131300
#0041a:24
#00410:41
#00517:13
#00512:13130000000000001300000013000000
#0051b:00000013000000001300000013000000
#00518:00000000001313000000001300000000
#00516:00000013000000000000000000000000
#00515:0000000000130000
#0061b:13130000001313000000001300000000
#00612:00000013000000001313000000131300
#00616:13000000000000000000001300000000
#00617:00000013000000001300000000000000
#01412:0000000000000013
#0141b:23000000000013000000000000000013
#01417:0013000000000000
#01419:00130000
#01414:00000000000000000000131300000000
#01410:41
#01712:1313000000000000
#0171b:13000000001300000000000000000000
#01718:0000130013000013
#01715:00000013000000000000000000000013
#01716:00000000000000130000000000000000
#03812:13
#0381b:00000013130000001300000000000000
#03819:0000000000130000
#03816:2300001300000000
#03810:41
#04215:0000001300000000
#04217:0000130000130000
#04218:00000000000000130000000000000000
#0421a:14
#04216:0013000000001300
#04212:1300000000000013
#0421b:0013
#04618:00130000001300000000000000000000
#0461b:1300001313000000
#04615:00001300130000130000000000000000
#04617:00000000000000000000001300001300
#04612:00000013000000000000131300000000
#04616:0000000000000000000000000000000000000000000000000013000000000000
#04716:13000000000000000000001300000000
#0471b:13001300000000000000131300000000
#04715:0000130000000013
#04718:00000013000000000000000000000013
#04712:00000000001300001300000000000000
#04717:0000000000000000000000001300000000000000000000000013000000000000
#0021b:1300000000000000001300000000000000000000000013000000000000000000
#00212:0000000000001300000000000000000013000000000000000013000000000000
#00217:0000000000001300000000000000000000000000000000000013000000000000
#00216:0000000000000000001300000000000000000000000013000000000000000000
#00818:00130000
#00815:00000013000000000000000000000000
#00812:2300001300000013
#00814:00001313
#00816:0000000000130000
#00817:0013
#0081b:23
#02216:0013000000000000
#02214:00130000
#02212:1300001312000000
#0221c:12
#02217:0000000000130000
#02219:00000013
#0221b:0000000000000013
#02312:0013000012000000
#02314:00130000
#02316:0000001300000013
#02318:12000012
#0241b:0013000000000013
#02419:00130013
#02417:0000001300130000
#02416:12000012
#02414:0000000000120000
#02418:0000000000000012
#02415:0013
#03716:00001323000000000000001323000000
#03712:24000000001424000000001323000000
#03717:00000000001323001323000000002300
#0371a:24001424000000000000000000000000
#0371b:00000000000000001323000000002300
#03914:0000000000130000
#03916:00000013
#03919:00130000
#04316:13
#04312:00130000
#04317:0013000000000000
#0431b:13
#00716:0013001300000000
#00712:13130013
#00715:00000000000000000013001300001300
#00718:00000000000000000000130000130013
#0071b:0013000013001300
#00717:13
#00719:0000001300000000
#00912:13000013000013000000000000130000
#0091b:00000000000000001313000013000000
#00918:00000000240000000000001300001300
#00915:00000000000000000000130000000013
#0091a:24
#00914:00000024
#00916:0024
#01112:13001313
#01115:00000013000000000000130000000000
#01118:00000000130000001300001300000000
#0111b:1300001300000000
#02019:0013000000130013
#02014:0000001300000000
#0201b:13130013
#02012:1313
#02016:00000013
#03012:13000000130000001400001300000000
#0301b:13000000130000000000000000130000
#03015:00000013000013000000000000000000
#03018:00001300000000130000000000000000
#03017:00000000000000000000000000000013
#03014:0000000000000013
#03016:00000000000000000013000014000000
#03019:0000000000130000
#0301a:0014
#03618:00000000000013000000130000130013
#0361b:00001313
#03614:0013000000000000
#03616:24132400
#03612:00000000000000000013000024000000
#03615:00000000000000000000001300001300
#0361a:00240000
#04117:00001323000000000000000000000000
#04116:00000000001323000014141400001400
#04114:00000000000000000000000000140000
#04112:24000014000000001400000024000000
#0411a:1400001424001400
#04118:00000000000000000000000000000014
#05512:1300000000000013
#05513:0013000000001300
#05514:0000130000130000
#05515:0000001313000000
#05519:0000001300000000
#0551b:1313
#05517:00000013
#06112:13130000000013002300000013000000
#0611b:13000013000000000000000023000000
#06117:00000000001313000000000000000000
#06118:00000000000000000000001300000000
#06116:00000013000000000000000000001300
#06115:0000000000230000
#06110:41
#06017:00000000000013001313000000000000
#06012:16130000001313001300000000000000
#0601b:00000013000000000000000000131300
#06016:00000000000000000000001300001300
#06018:26
#0601f:21
#0691a:00000000000014000000140000140000
#06912:00001400000000000014000000001400
#06916:24000000000000000000001400000014
#06914:0028
#06913:0000002a
#06915:00260000
#0101b:1300001313000000
#01015:00000013000000000000000013000000
#01018:00000000130000000000001300000000
#01012:2400000013000013
#01212:00000000000013001300001300000000
#01215:13130000
#0121b:13000013000000000000000000001300
#01218:00001313
#01312:0000001313001300
#01315:1300130000130013
#0131b:13000013000000001300001300000000
#01318:00000000000000000013000000130013
#0151b:00001313000000000000000000000000
#01519:00000000001300000000000000000000
#01517:00000000000000130000000000000000
#01512:00000013
#01518:0000000000000013
#01515:00000000000000000000000000000013
#0161b:13
#01612:13
#01614:000000130000000000321200000000000000000000000000
#01619:0013000000000000
#0161a:000000000000000000321200000000000000000000000000
#01613:0000003a
#0181b:00000000000000000000000000131300
#01816:0013000000000000
#01814:00130000
#01812:2300001300000000
#01819:00000000000000000000131300000000
#01912:13001313000000000000000000000000
#01914:00000000001300000000000000000000
#01916:00000000000000130000000000000000
#0191b:00000013
#01915:0000000000000013
#01918:00000000000000000000000000000013
#02112:0000000013001300000000000000000000150000000000001300000000000000
#02115:00000000001313000000000000000013
#02118:00000000000000130000000000001300
#02117:13
#0211b:00000013
#0211a:00000000000000001313000000000000
#02119:0000000000000000000000000000000000150000000000000000000000000000
#02113:00000000000000001313000000000000
#02518:12
#0251b:13
#02517:0000001313000000
#02512:0012
#0531c:12
#05312:00000012
#05316:12
#05318:0012
#0541a:00000012
#05416:00000000000012000000001200000000
#05418:0012000000120000
#05414:00000012
#0561b:0000001313000000
#05618:0013000000000000
#05612:1300000000000013
#05613:0013000000001300
#05614:0000130000130000
#05615:0000001313000000
#05212:00000012
#05218:0012
#0521c:0000000000120000
#0511c:0012
#05118:0000000000120000
#0511f:11
#0501c:0012000000000000
#0501b:00130000000000000000000000000000
#05019:00000015000000000000000000000000
#05016:00180000
#05012:22141614121400000000000026000000
#05017:00000000001700000000000000000000
#05018:00000026
#0501a:24
#0491b:00130000000000000000000000130000
#0491a:24000014001400000014001400000000
#04918:0000160000160000
#0491c:0012000022001200
#04912:22141614121500002815121416140000
#04910:41
#04416:0000000000000014
#04412:0000001c00000000
#04413:001a
#04414:0000000000180000
#04415:00000016
#0451a:14
#04519:00000015000000000000000000000000
#04518:0000001600000000
#04512:14000015000016001c1c1c1c1c000000
#04812:1314000000000014
#0481a:0014000000000014
#04819:00140000
#04813:00140000
#04818:0000001400000000
#04814:0000001400000000
#0481b:13
#0651b:13130000000013002300000013000000
#06512:13000013000000000000000023000000
#06516:00000000001313000000000000000000
#06515:00000000000000000000001300000000
#06517:00000013000000000000000000001300
#06518:0000000000230000
#06416:00000000000013001313000000000000
#06418:16
#0641b:00130000001313001300000000000000
#06412:26000013000000000000000000131300
#06417:00000000000000000000001300001300
#06314:00000000000000000014000000001800
#06318:00001300000000130000140000000000
#06316:00000000000000000000001424000000
#06315:00000013000013000000000000160000
#06313:0000000000000000000000000000001a
#06312:13132400
#0631b:13130000
#0631a:0024
#07012:2c000013130000000000001313000000
#07016:0000001313000000
#07017:00000013130000000000000013000000
#0701b:0000000013000013
#07316:00140024001400002400000000000000
#07312:0014002400000000
#0731a:24000000140000140000000000000000
#0681a:0000142400000024
#06812:1c00140000240000
#06816:00002424
#0261a:140000000000000000000000243400003400000000000000
#02616:000000000000000000000000000000000000000000000000000000000000000000000000000000000000000000000000000000000000000000000000000000000000000000000000000000000000000000000000000000000000000000000000000000000000000000000000000000000000000000000000000000000000000000000000000000000000000000000000000000000000000000000000000000000000000000000000000000000000000000000000000000000000000000000000000000000000000000000000000000000000000000000000000000000000000000000000000000000000000000000000000000000000000000000000000000000000000000000000000000000000000000000000000000000000000000000000000000000000000000000000000000000000000000000000000000000000000000000000000000000000000000000000000000000000000000000000000000000000000000000000140000000000000000000000000000000000000000000000000000000000000000000000000000000000000000000000000000000000000000000000000000000000000000000000000000000000000000000000000000000000000000000000000000000000000000000000000000000000000000000000260000000000000000000000000000000000000000000000000000000000000000000000000000000000000000000000000000000000000000000000000000000000000000000000000000000000000000000000000000000000000000000000000000000000000000000000000000000000000000000000000000000000000000000000000000000000000000000000000000000000000000000000000000000000000000000000000000000000000000000000000000000000000000000000000000000000000000000000000000000000000000000000000000000000000000000000000000000000000000000000000000000000000000000000000000000000000000000000000000000000000000000000000000000000000000000000000000000000000000000000000000000000000000000000000000000000000000000000000000000000000000000000000000000000000000000000000000000000000000000000000000000000000000000000000000000000000000000000000000000000000000000000000000000000000000000000000000000000000000000000000000000000000000000000000000000000000000000000000000000000000000000000000000000000000000000000000000000000000000000000000000000000000000000000000000000000000000000000000000000000000000000000000000000000000000000000000000000000000000000000000000000000000000000000000000000000000000000000000000000000000000000000000000000000000000000000000000000000000000000000000000000000000000000000000000000000000000000000000000000000000000000000000000000000000000000000000000000000000000000000000000000000000000000000000000000000000000000000000000000000000000000000000000000000000000000000000000000000000000000000141400000000000000000000000000000000000000000000000000000000000000000000000000000000000000000000000000000000000000000000000000000000000000000000000000000000000000000000000000000000000000000000000000000000000000000000000000000000000000000000000000000000000000000000000000000000000000000000000000000000000000000000000000000000000000000000000000000000000000000000000000000000000000000000000000000000000000000000000000000000000000000000000000000000000000000000000000000000000000000000000000000000000000000000000000000000000000000000000000000000000000000000000000000000000000000000000000000000000000000000000000000000000000000000000000000000000000000000000000000000000000000000000000000000000000000000000000000000000000000000000000000000000000000000000000000000000000000000000000000000000000000000000000000000000000000000000000000000000000000000000000000000000000000000000000000000000000000000000000000000000000000000000000000000000000000000000000000000000000000000000000000000000000000000000000000000000000000000000000000000000000000000000000000000000000000000000000000000000000000000000000000000000000000000000000000000000000000000000000000000000000000000000000000000000000000000000000000000000000000000000000000000000000000000000000000000000000000000000000000000000000000000000000000000000000000000000000000000000000000000000000000000000000000000000000000000000000000000000000000000000000000000000000000000000000000000000000000000000000000000
#02612:260000000000000000140000240034000034000000000000
#02614:0026000000000000
#02618:0000002600000000
#03112:13130000000000001300000000131300
#03117:00000000001313001313000000000000
#0311b:00000013000000000000001300000000
#03116:00000013000000000000001300000000
#0311a:24
#0321b:13002313
#03216:13130000000000000000000000000000
#03212:00000000001313000000000023000000
#03219:0000000000000013
#03215:00000000000000000000001300000000
#03217:00000013000000000000000000000000
#03218:0000000000230000
#0271b:13130000000000001300000000131300
#02716:00000000001313001313000000000000
#02712:24000013000000000000001300000000
#02717:00000013000000000000001300000000
#02710:41
#02812:13002313
#02817:13130000000000000000000000000000
#0281b:00000000001313000000000023000000
#02814:0000000000000013
#02818:00000000000000000000001300000000
#02816:00000013000000000000000000000000
#02815:0000000000230000
#03417:00000000000000000013000000000000
#03414:0000000000130000
#0341b:13000000130000000000001300000000
#03412:13000000130000001400000000130000
#03419:0000000000000013
#03416:00000000000000000000000014000013
#03418:00000013000013000000000000000000
#03415:00001300000000130000000000000000
#0341a:0014
#0331b:00000013000000001313000000001300
#03316:00000000000000001313000000131300
#03317:13130000000013000000001300000000
#03312:13130000001313000000000000000000
#03512:14131300
#03515:0000001300000000
#0351b:1300000000131300
#03519:0000000000000013
#03517:00130000
#03516:00000013
#07112:13000013130000002600001300130000
#0711b:0000001300000000000000000000000013000000000000001300000000001300
#07116:0000001300000000
#07118:00000000000000000013000000000000
#07115:0000000000130026
#07117:13130000
#07216:00000013130000000000000013000000
#0721b:13000000130000000000001313000000
#07217:0000001300000000000000001300000013000000000000000000000000000000
#07212:2600000013000013
#05716:00000013
#05712:1313
#05714:0000001300000000
#0571b:1300000000000013
#0571a:0013000000001300
#05719:0000130000130000
#05718:0000001313000000
#05812:0000001313000000
#0581a:0013000000001300
#05819:0000130000130000
#05818:0000001313000000
#0581b:13
#05815:0013000000000000
#0621b:00000013000000000000130000131300
#06217:13000000130013001313000000000000
#06212:13130000001313001300000013001300
#06215:00000000000000000000001300000000
#06216:0013000000000000
#06616:13000013
#0661b:13000000001313000000001313000000
#06617:00000013000000001300000000000000
#06612:00001313000000001313000000001300
#06712:13000000140000001c0000001c140000
#06714:00000014000000000000001400000000
#0671b:00130000
#06716:0014001400000000
#0671a:14000000000000000014000000000000
#06717:0000000000140000
#06718:00000000000000140000000000000014
#06715:0000000000000014
#02917:00000000000000001300000000130013
#02912:00000013000000001300000000001300
#02916:13130000000013000000131300000000
#0291b:13130000001313000000001300000000
#05912:00000026
#05918:00000026
#00057:00000052000000000000006200000000
#0005c:62
#00052:0052
#04052:53
#0405b:00000053000000000000000000000000
#00152:0052
#00158:00000022
#00157:00000052000000000000000000000000
#0015c:62
#00652:00000053000000000000000000000000
#0065b:00000000000000000000006300000000
#03852:53
#03856:0000002300000000
#0465b:0063
#04652:00000000000000000000005300000000
#04656:0000000000000000000000000000000000000000000000000023000000000000
#0025b:5300000000000000002300000000000000000000000063000000000000000000
#00252:0000000000005300000000000000000063000000000000000023000000000000
#00257:0000000000005300000000000000000000000000000000000023000000000000
#00256:0000000000000000002300000000000000000000000063000000000000000000
#0055b:0053
#00556:00000053000000000000000000000000
#00552:00000013
#00756:0000002300000000
#00752:00630000
#0075b:0023000000000000
#00757:63
#0035a:00006444
#00356:000000000000000000000000000000000000000000000000000000000000000000000000000000000000000000000000000000000000000000000000000000000000000000000000000000000000000000000000000000000000000000000000000000000000000000000000000000000000000000000000000000000000000000000000000000000000000000000000000000000000000000000000000000000000000000000000000000000000000000000000000000000000000000000000000000000000000000000000000000000000000000000000000000000000000000000000000000000000000000000000000000000000000000000000000000000000000000000000000000000000000000000000000000000000000000000000000000000000000000000000000000000000000000000000000000000000000000000000000000000000000000000000000000000000000000000000000000000000000000000000000000000000000000000000000000000000000000000000000000000000000000000000000000000000000000000000000000000000000000000000000000000000000000000000000000000000000000000000000000000000000000000000000000000000000000000000000000000000000000000000000000000000000000000000000000000000000000000000000000000000000000000000000000000000000000000000000000000000000000000000000000000000000000000000000000000000000000000000000000000000000000000000000000000000000000000000000000000000000000000000000000000000000000000000000000000000000000000000000000000000000000000000000000000000000000000000000000000000000000000000000000000000000000000000000000000000000000000000000000000000000000000000000000000000000000000000000000000000000000000000000000000000000000000000000000000000000000000000000000000000000000000000000000000000000000000000000000000000000000000000000000000000000000000000000000000000000000000000000000000000000000000000000000000000000000000000000000000000000000000000000000000000000000000000000000000000000000000000000000000000000000000000000000000000000000000000000000000000000000000000000000000000000000000000000000000000000000000000000000000000000000000000000000000000000000000000000000000000000000000000000000000000000000000000000000000000000000000000000000000000000000000000000000000000000000000000000000000000000000000000000000000000000000000000000000000000000000000000000000000000000000000000000000000000000000000000000000000000000000000000000000000000000000000000000000000000000000000000000000000000000000000000000000000000000000000000000000000000000000000000000000000000000000000000000000000000000000000000000000000000000000000000000000000000000000000000000000000000000000000000242400000000000000000000000000000000000000000000000000000000000000000000000000000000000000000000000000000000000000000000000000000000000000000000000000000000000000000000000000000000000000000000000000000000000000000000000000000000000000000000000000000000000000000000000000000000000000000000000000000000000000000000000000000000000000000000000000000000000000000000000000000000000000000000000000000000000000000000000000000000000000000000000000000000000000000000000000000000000000000000000000000000000000000000000000000000000000000000000000000000000000000000000000000000000000000000000000000000000000000000000000000000000000000000000000000000000000000000000000000000000000000000000000000000000000000000000000000000000000000000000000000000000000000000000000000000000000000000000000000000000000000000000000000000000000000000000000000000000000000000000000000000000000000000000000000000000000000000000000000000000000000000000000000000000000000000000000000000000000000000000000000000000000000000000000000000000000000000000000000000000000000000000000000000000000000000000000000000000000000000000000000000000000000000000000000000000000000000000000000000000000000000000000000000000000000000000000000000000000000000000000000000000000000000000000000000000000000000000000000000000000000000000000000000000000000000000000000000000000000000000000000000000000000000000000000000000000000000000000000000000000000000000000000000000000000000000000000000000000000000
#00352:00005434
#0375a:44
#03752:34
#0085b:13
#00852:13
#00857:0053
#06956:14
#06954:0018
#06953:0000001a
#06955:00160000
#07052:1c000053
#07057:00530000
#0705b:0063
#0615b:43000043
#06157:0000005300000000
#06156:00000063000000000000000000000000
#06152:00530000000000000000000033000000
#0045a:14
#00456:00000053000000000000000000000000
#0045b:00000000000000000000005300000000
#0105b:63
#01055:00000053000000000000000000000000
#01052:1453
#01058:00000000000000000000006300000000
#01152:00000033
#01158:0053
#0115b:63
#01155:00000053000000000000000000000000
#0125b:00000063000000000000000000000000
#01255:53
#01252:00000000000000000000005300000000
#01258:0063
#0135b:00000063000000000000000000000000
#01355:53
#01756:00000000000000630000000000000000
#01758:0053
#0175b:63
#02052:5353
#0205b:00630000
#02056:00000063
#02157:53
#0215b:00000013
#02152:0000000000000000000000000000000000250000000000001300000000000000
#0215a:00000000000000005353000000000000
#02159:0000000000000000000000000000000000250000000000000000000000000000
#02153:00000000000000006363000000000000
#0165a:000000000052000000000000
#01654:000000000062000000000000
#0225c:62
#02252:0052
#02358:52000052
#02352:0052
#02456:62
#02558:62
#0255b:63
#02557:00005312
#02552:0052
#05052:22542664225400003600000036000000
#05058:00004646
#0505c:0022000000000000
#0505b:00530000000000000000000000000000
#05059:00000065000000000000000000000000
#05056:00280000
#05057:00000000005700000000000000000000
#0505a:24
#0555b:6363
#05557:00000053
#0565b:0063
#05454:00000032
#0545a:00000042
#05158:0000000000220000
#0515c:0062
#05356:62
#05358:0052
#05258:0052
#0525c:0000000000220000
#0495a:24000064005400000064006400000000
#0495c:0022000022002200
#04958:0000260000260000
#0495b:00530000000000000000000000630000
#04952:22542654225500002865225426640000
#06058:46
#06052:00530000000000003300000000000000
#06057:00000000000000000053000000000000
#06056:00000000000000000000006300000000
#0605b:00000063000000000000000000000000
#0645b:00630000000000004300000000000000
#06456:00000000000000000063000000000000
#06457:00000000000000000000005300000000
#06452:36000053000000000000000000000000
#06552:33000033
#06556:0000006300000000
#06557:00000053000000000000000000000000
#0655b:00630000000000000000000043000000
#07352:0000001c
#02656:000000000000000000000000000000000000000000000000000000000000000000000000000000000000000000000000000000000000000000000000000000000000000000000000000000000000000000000000000000000000000000000000000000000000000000000000000000000000000000000000000000000000000000000000000000000000000000000000000000000000000000000000000000000000000000000000000000000000000000000000000000000000000000000000000000000000000000000000000000000000000000000000000000000000000000000000000000000000000000000000000000000000000000000000000000000000000000000000000000000000000000000000000000000000000000000000000000000000000000000000000000000000000000000000000000000000000000000000000000000000000000000000000000000000000000000000000000000000000000000000000000000000000000000000000000000000000000000000000000000000000000000000000000000000000000000000000000000000000000000000000000000000000000000000000000000000000000000000000000000000000000000000000000000000000000000000000000000000000000000000000000000000000000000000000000000000000000000000000000000000000000000000000000000000000000000000000000000000000000000000000000000000000000000000000000000000000000000000000000000000000000000000000000000000000000000000000000000000000000000000000000000000000000000000000000000000000000000000000000000000000000000000000000000000000000000000000000000000000000000000000000000000000000000000000000000000000000000000000000000000000000000000000000000000000000000000000000000000000000000000000000000000000000000000000000000000000000000000000000000000000000000000000000000000000000000000000000000000000000000000000000000000000000000000000000000000000000000000000000000000000000000000000000000000000000000000000000000000000000000000000000000000000000000000000000000000000000000000000000000000000000000000000000000000000000000000000000000000000000000000000000000000000000000000000000000000000000000000000000000000000000000000000000000000000000000000000000000000000000000000000000000000000000000000000000000000000000000000000000000000000000000000000000000000000000000000000000000000000000000000000000000000000000000000000000000000000000000000000000000000000000000000000000000000000000000000000000000000000000000000000000000000000000000000000000000000000000000000000000000000000000000000000000000000000000000000000000000000000000000000000000000000000000000000000000000000000000000000000000000000000000000000000000000000000000000000000000000000000000000000242400000000000000000000000000000000000000000000000000000000000000000000000000000000000000000000000000000000000000000000000000000000000000000000000000000000000000000000000000000000000000000000000000000000000000000000000000000000000000000000000000000000000000000000000000000000000000000000000000000000000000000000000000000000000000000000000000000000000000000000000000000000000000000000000000000000000000000000000000000000000000000000000000000000000000000000000000000000000000000000000000000000000000000000000000000000000000000000000000000000000000000000000000000000000000000000000000000000000000000000000000000000000000000000000000000000000000000000000000000000000000000000000000000000000000000000000000000000000000000000000000000000000000000000000000000000000000000000000000000000000000000000000000000000000000000000000000000000000000000000000000000000000000000000000000000000000000000000000000000000000000000000000000000000000000000000000000000000000000000000000000000000000000000000000000000000000000000000000000000000000000000000000000000000000000000000000000000000000000000000000000000000000000000000000000000000000000000000000000000000000000000000000000000000000000000000000000000000000000000000000000000000000000000000000000000000000000000000000000000000000000000000000000000000000000000000000000000000000000000000000000000000000000000000000000000000000000000000000000000000000000000000000000000000000000000000000000000000000000000000
#02652:00005434
#0265a:00006444
#03152:00530000000000001300000000000000
#0315b:00000000000000000000006300000000
#03157:00000000000000000053000000000000
#03156:00000063000000000000000000000000
#0315a:14
#0325b:13
#03257:00000053000000000000000000000000
#03256:00630000000000000000000000000000
#03252:00000013
#0275b:00630000000000001300000000000000
#02752:14000000000000000000005300000000
#02756:00000000000000000063000000000000
#02757:00000053000000000000000000000000
#02852:13
#02856:00000063000000000000000000000000
#02857:00530000000000000000000000000000
#0285b:00000013
#0335b:00000063000000000000000000000000
#03352:00530000000000000000000000000000
#03357:00000000000000000000005300000000
#03356:00000000000000000063000000000000
#03552:1453
#03557:00230000
#0355b:63
#03556:00000023
#04152:00000014000000001400000000000000
#0415a:1400001400001400
#04256:0023000000000000
#04252:53
#04357:0023000000000000
#0435b:63
#07252:1653
#07257:0000002300000000000000000000000000000000000000000000000000000000
#0725b:63000063
#07256:00630000
#07157:53530000
#0715b:0000002300000000000000000000000000000000000000000000000000000000
#05952:00000036
#05958:00000046
#04757:0000000000000000000000005300000000000000000000000023000000000000
#0475b:00000000000000000000006300000000
#04752:0053
#05756:00000063
#05752:5353
#05852:0053
#0625b:00000063000000000000230000000000
#06257:13000000230000000053000000000000
#06252:00530000000000001300000023000000
#06255:00000000000000000000006300000000
#06256:0023000000000000
#06352:63330000
#0635b:43530000
#06656:13
#06657:0013
#06652:00000053000000000053000000000000
#0665b:63000063
#06752:33003c4c
#0675b:00430000
#06852:3c
#02957:0053
#02956:00000000000000000000006300000000
#0295b:00630000000000000000000000000000
#02952:00000053000000000000000000000000
#0003c0:1200002200000000
#000370:00000032000000000000000000000000
#000320:0000000012000022
#000370:00000000000000000000003200000000
#0013c0:1200002200000000
#001370:00000032000000000000000000000000
#001320:0012
#001380:00000052
#002320:22
#0023b1:1300000000000000005300000000000000000000000000000000000000000000
#002371:00000033000023000000000000000000
#002320:00000013000023000000000000000000
#002360:0000000000000000005300000000000000000000000000000000000000000000
#002320:0000000000000000000000000000000013000000000000000053000000000000
#002360:00000000000000000000003300002300
#0023b1:00000000000000000000001300002300
#002371:0000000000000000000000000000000000000000000000000053000000000000
#0033a1:000000000000000000000000140034000034240000000000
#003361:000000000000000000000000000000000000000000000000000000000000000000000000000000000000000000000000000000000000000000000000000000000000000000000000000000000000000000000000000000000000000000000000000000000000000000000000000000000000000000000000000000000000000000000000000000000000000000000000000000000000000000000000000000000000000000000000000000000000000000000000000000000000000000000000000000000000000000000000000000000000000000000000000000000000000000000000000000000000000000000000000000000000000000000000000000000000000000000000000000000000000000000000000000000000000000000000000000000000000000000000000000000000000000000000000000000000000000000000000000000000000000000000000000000000000000000000000000000000000000000000000000000000000000000000000000000000000000000000000000000000000000000000000000000000000000000000000000000000000000000000000000000000000000000000000000000000000000000000000000000000000000000000000000000000000000000000000000000000000000000000000000000000000000000000000000000000000000000000000000000000000000000000000000000000000000000000000000000000000000000000000000000000000000000000000000000000000000000000000000000000000000000000000000000000000000000000000000000000000000000000000000000000000000000000000000000000000000000000000000000000000000000000000000000000000000000000000000000000000000000000000000000000000000000000000000000000000000000000000000000000000000000000000000000000000000000000000000000000000000000000000000000000000000000000000000000000000000000000000000000000000000000000000000000000000000000000000000000000000000000000000000000000000000000000000000000000000000000000000000000000000000000000000000000000000000000000000000000000000000000000000000000000000000000000000000000000000000000000000000000000000000000000000000000000000000000000000000000000000000000000000000000000000000000000000000000000000000000000000000000000000000000000000000000000000000000000000000000000000000000000000000000000000000000000000000000000000000000000000000000000000000000000000000000000000000000000000000000000000000000000000000000000000000000000000000000000000000000000000000000000000000000000000000000000000000000000000000000000000000000000000000000000000000000000000000000000000000000000000000000000000000000000000000000000000000000000000000000000000000000000000000000000000000000000000000000000000000000000000000000000000000000000000000000000000000000000000000000000000000000000005400000000000000000000000000000000000000000000000000000000000000000000000000000000000000000000000000000000000000000000000000000000000000000000000000000000000000000000000000000000000000000000000000000000000000000000000000000000000000000000000000000000000000000000000000000000000000000000000000000000000000000000000000000000000000000000000000000000000000000000000000000000000000000000000000000000000000000000000000000000000000000000000000000000000000000000000000000000000000000000000000000000000000000000000000000000000000000000000000000000000000000000000000000000000000000000000000000000000000000000000000000000000000000000000000000000000000000000000000000000000000000000000000000000000000000000000000000000000000000000000000000000000000000000000000000000000000000000000000000000000000000000000000000000000000000000000000000000000000000000000000000000000000000000000000000000000000000000000000000000000000000000000000000000000000000000000000000000000000000000000000000000000000000000000000000000000000000000000000000000000000000000000000000000000000000000000000000000000000000000000000000000000000000000000000000000000000000000000000000000000000000000000000000000000000000000000000000000000000000000000000000000000000000000000000000000000000000000000000000000000000000000000000000000000000000000000000000000000000000000000000000000000000000000000000000000000000000000000000000000000000000000000000000000000000000000000000000000000000000000
#003320:000000000000000000000000143400003400240000000000
#003360:0000000000340000
#004360:00000013000000000000000000000000
#004320:0000002300000000
#0043b0:00000000000000000000001300000000
#004370:0000000000000023
#005360:00000013000000000000000000000000
#005320:0000002300000000
#0053b0:0013
#005380:0000000000230000
#006320:00000013000000000000000000000000
#006360:0000002300000000
#0063b0:00000000000000000000001300000000
#006370:0000000000000023
#007370:13230000
#0073b0:0053000000000000
#007321:00132300
#007361:0000005300000000
#008371:0013
#0083b1:0000000000000023
#0103b1:13
#010381:00000023000000000000000000000000
#010350:00000013000000000000000000000000
#010320:0000002300000000
#010320:0013
#010350:00000000000000000000002300000000
#010381:00000000000000000000001300000000
#0103b1:0000000000000023
#0113b1:13
#011381:00000023000000000000000000000000
#011350:00000013000000000000000000000000
#011320:0000002300000000
#011380:0013
#0113b0:0000000000230000
#012350:13
#012320:00000023000000000000000000000000
#0123b1:00000013000000000000000000000000
#012381:0000002300000000
#012381:0013
#0123b1:00000000000000000000002300000000
#012320:00000000000000000000001300000000
#012350:0000000000000023
#013350:13
#013320:00000023000000000000000000000000
#0133b1:00000013000000000000000000000000
#013381:0000002300000000
#014321:13
#014361:0023
#0143b0:0013
#014370:0000000000000023
#015360:13
#015320:0023
#015371:0013
#0153b1:00000023
#016391:00000000120000542500000000000000
#0163a1:000000000000000000000000000000000000000000000000000000000000000000000000000000000000000000000000000000000000000000000000000000000000000000000000000000000000000000000000000000000000000000000000000000000000000000000000000000000000000000000000000000000000000000000000000000000000000000000000000000000000000000000000000000000000000000000000000000000000000000000000000000000000000000000000000000000000000000000000000000000000000000000000000000000000000000000000000000000000000000000000000000000000000000000000000000000000000000000000000000000000000000000000000000000000000000000000000000000000000000000000000000000000000000000000000000000000000000000000000000000000000000000000000000000000000000000000000000000000000000000000320000000000000000000000000000000000000000000000000000000000000000000000000000005200000000000000000000000000000000000000005200000000000000000000000000000000000000000000000000000000000000000000000000000000000000000000000000000000000000000000000000000000000000000000000000000000000000000000000000000000000000000000000000000000000000000000000000000000000000000000000000000000000000000000000000000000000000000000000000000000000000000000000000000000000000000000000000000000000000000000000000000000000000000000000000000000000000000000000000000000000000000000000000000000000000000000000000000000000000000000000000000000000000000000000000000000000000000000000000000000000000000000000000000000000000000000000000000000000000000000000000000000000000000000000000000000000000000000000000000000000000000000000000000000000000000000000000000000000000000000000000000000000000000000000000000000000000000000000000000000000000000000000000000000000000000000000000000000000000000000000000000000000000000000000000000000000000000000000000000000000000000000000000000000000000000000000000000000000000000000000000000000000000000000000000000000000000000000000000000000000000000000000000000000000000000000000000000000000000000000
#016350:00120000
#016340:000000000000000000000000000000000000000000000000000000000000000000000000000000000000000000000000000000000000000000000000000000000000000000000000000000000000000000000000000000000000000000000000000000000000000000000000000000000000000000000000000000000000000000000000000000000000000000000000000000000000000000000000000000000000000000000000000000000000000000000000000000000000000000000000000000000000000000000000000000000000000000000000000000000000000000000000000000000000000000000000000000000000000000000000000000000000000000000000000000000000000000000000000000000000000000000000000000000000000000000000000000000000000000000000000000000000000000000000000000000000000000000000000000000000000000000000000000000000000000000000320000000000000000000000000000000000000000000000000000000000000000000000000000005200000000000000000000000000000000000000005200000000000000000000000000000000000000000000000000000000000000000000000000000000000000000000000000000000000000000000000000000000000000000000000000000000000000000000000000000000000000000000000000000000000000000000000000000000000000000000000000000000000000000000000000000000000000000000000000000000000000000000000000000000000000000000000000000000000000000000000000000000000000000000000000000000000000000000000000000000000000000000000000000000000000000000000000000000000000000000000000000000000000000000000000000000000000000000000000000000000000000000000000000000000000000000000000000000000000000000000000000000000000000000000000000000000000000000000000000000000000000000000000000000000000000000000000000000000000000000000000000000000000000000000000000000000000000000000000000000000000000000000000000000000000000000000000000000000000000000000000000000000000000000000000000000000000000000000000000000000000000000000000000000000000000000000000000000000000000000000000000000000000000000000000000000000000000000000000000000000000000000000000000000000000000000000000000000000000000000
#016330:00000000000000540000000000000000
#016320:0025
#016320:0000000000000000000000000000000000000000000000000000000000000000000000000000000000000000000000000000000000000000000000001c5c00000000000000000000000000000000000000000000000000000000000000000000
#016330:000000000000000000000000000000000000000000000000000000000000005a000000003a0000000000000000000000
#016340:0000000000000028
#0173b0:13
#017380:00000023000000000000000000000000
#017360:00000000000000130000000000000000
#017320:00000023
#017381:0013
#0173b1:00000023
#0183b1:13
#018371:0023
#018320:0013
#018360:0000000000000023
#019370:13
#0193b0:0023
#019361:0013
#019321:00000023
#020321:13
#020361:00230000
#0203b0:00130000
#020370:0023
#020321:0013
#020361:00000033
#021321:23
#021370:13
#0213b0:0000002300000000
#0213a0:00000000000000001353000000000000
#021390:0000000000000000000000000000000000550000250000000000000000000000
#0213b0:000000000000000000000000000000000000000000000000000000000000000000000000000000000000000000000000000000000000000000000000000000000000000000000000000000000000000000000000000000000000000000000000000000000000000000000000000000000000000000000000000000000000000000000000000000000000000000000000000000000000000000000000000000000000000000000000000000000000000000000000000000000000000000000000000000000000000000000000000000000000000000000000000000000000000000000000000000000000000000000000000000000000000000000000000000000000000000000000000000000000000000000000000000000000000000000000000000000000000000000000000000000000000000000000000000000000000000000000000000000000000000000000000000000000000000000000000000000000000000000000000000000000000000000000000000000000000000000000000000000000000000000000000000000000000000000000000000000000000000000000000000000000000000000000000000000000000000000000000000000000000000000000000000000000000000000000000000000000000000000000000000000000000000000000000000000000000000000000000000000000000000000000000000000000000000000000000000000000000000000000000000000000000000000000000000000000000000000000000000000000000000000000000000000000000000000000000000000000000000000000000000000000000000000000000000000000000000000000000000000000000000000000000000000000000000000000000000000000000000000000000000000000000000000000000000000000000000000000000000000000000000000000000000000000000000000000000000000000000000000000000000000000000000000000000000000000000000000000000000000000000000000000000000000000000000000000000000000000000000000000000000000000000000000000000000000000000000000000000000000000000000000000000000000000000000000000000000000000000000000000000000000000000000000000000000000000000000000000000000000000000000000000000000000000000000000000000000000000000000000000000000000000000000000000000000000000000000000000000000000000000000000000000000000000000000000000000000000000000000000000000000000000000000000000000000000000000000000000000000000000000000000000000000000000000000000000000000000000000000000000000000000000000000000000000000000000000000000000000000000000000000000000000000000000000000000000000000000000000000000000000000000000000000000000000000000000000000000000000000000000000000000000000000000000000000000000000000000000000000000000000000000000000000000000000000000000000000000000000000000000000000000000000000000000000000000000000000000000000000000051000000000000000000000000000000000000000000000000000000000000000000000000000000000000000000000000000000000000000000000000000000000000000000000000000000000000000000000000000000000000000000000000000000000000000000000000000000000000000000000000000000000000000000000000000000000000000000000000000000000000000000000000000000000000000000000000000000000000000000000000000000000000000000000000000000000000000000000000000000000000000000000000000000000000000000000000000000000000000000000000000000000000000000000000000000000000000000000000000000000000000000000000000000000000000000000000000000000000000000000000000000000000000000000000000000000000000000000000000000000000000000000000000000000000000000000000000000000000000000000000000000000000000000000000000000000000000000000000000000000000000000000000000000000000000000000000000000000000000000000000000000000000000000000000000000000000000000000000000000000000000000000000000000000000000000000000000000000000000000000000000000000000000000000000000000000000000000000000000000000000000000000000000000000000000000000000000000000000000000000000000000000000000000000000000000000000000000000000000000000000000000000000000000000000000000000000000000000000000000000000000000000000000000000000000000000000000000000000000000000000000000000000000000000000000000000000000000000000000000000000000000000000000000000000000000000000000000000000000000000000000000000000000000000000000000000000000000000000000000000000
#021331:00000000000000001353000000000000
#021321:0000000000000000000000000000000000550000250000000000000000000000
#021341:000000000000000000000000000000000000000000000000000000000000000000000000000000000000000000000000000000000000000000000000000000000000000000000000000000000000000000000000000000000000000000000000000000000000000000000000000000000000000000000000000000000000000000000000000000000000000000000000000000000000000000000000000000000000000000000000000000000000000000000000000000000000000000000000000000000000000000000000000000000000000000000000000000000000000000000000000000000000000000000000000000000000000000000000000000000000000000000000000000000000000000000000000000000000000000000000000000000000000000000000000000000000000000000000000000000000000000000000000000000000000000000000000000000000000000000000000000000000000000000000000000000000000000000000000000000000000000000000000000000000000000000000000000000000000000000000000000000000000000000000000000000000000000000000000000000000000000000000000000000000000000000000000000000000000000000000000000000000000000000000000000000000000000000000000000000000000000000000000000000000000000000000000000000000000000000000000000000000000000000000000000000000000000000000000000000000000000000000000000000000000000000000000000000000000000000000000000000000000000000000000000000000000000000000000000000000000000000000000000000000000000000000000000000000000000000000000000000000000000000000000000000000000000000000000000000000000000000000000000000000000000000000000000000000000000000000000000000000000000000000000000000000000000000000000000000000000000000000000000000000000000000000000000000000000000000000000000000000000000000000000000000000000000000000000000000000000000000000000000000000000000000000000000000000000000000000000000000000000000000000000000000000000000000000000000000000000000000000000000000000000000000000000000000000000000000000000000000000000000000000000000000000000000000000000000000000000000000000000000000000000000000000000000000000000000000000000000000000000000000000000000000000000000000000000000000000000000000000000000000000000000000000000000000000000000000000000000000000000000000000000000000000000000000000000000000000000000000000000000000000000000000000000000000000000000000000000000000000000000000000000000000000000000000000000000000000000000000000000000000000000000000000000000000000000000000000000000000000000000000000000000000000000000000000000000000000000000000000000000000000000000000000000000000000000000000000000000000000000000000051000000000000000000000000000000000000000000000000000000000000000000000000000000000000000000000000000000000000000000000000000000000000000000000000000000000000000000000000000000000000000000000000000000000000000000000000000000000000000000000000000000000000000000000000000000000000000000000000000000000000000000000000000000000000000000000000000000000000000000000000000000000000000000000000000000000000000000000000000000000000000000000000000000000000000000000000000000000000000000000000000000000000000000000000000000000000000000000000000000000000000000000000000000000000000000000000000000000000000000000000000000000000000000000000000000000000000000000000000000000000000000000000000000000000000000000000000000000000000000000000000000000000000000000000000000000000000000000000000000000000000000000000000000000000000000000000000000000000000000000000000000000000000000000000000000000000000000000000000000000000000000000000000000000000000000000000000000000000000000000000000000000000000000000000000000000000000000000000000000000000000000000000000000000000000000000000000000000000000000000000000000000000000000000000000000000000000000000000000000000000000000000000000000000000000000000000000000000000000000000000000000000000000000000000000000000000000000000000000000000000000000000000000000000000000000000000000000000000000000000000000000000000000000000000000000000000000000000000000000000000000000000000000000000000000000000000000000000000000000000000
#0223c1:12
#022381:0022
#022320:0012
#023360:22
#023381:12
#0233c1:0022
#023320:0012
#023360:00000022
#023381:00000012
#0243c1:22
#024360:12
#024320:0022
#025380:12
#025320:0032
#025370:00000022
#0253b1:13
#025371:00230000
#025371:0013
#0253b1:00000023
#026321:000000000000000000000000140034000034240000000000
#026361:000000000000000000000000000000000000000000000000000000000000000000000000000000000000000000000000000000000000000000000000000000000000000000000000000000000000000000000000000000000000000000000000000000000000000000000000000000000000000000000000000000000000000000000000000000000000000000000000000000000000000000000000000000000000000000000000000000000000000000000000000000000000000000000000000000000000000000000000000000000000000000000000000000000000000000000000000000000000000000000000000000000000000000000000000000000000000000000000000000000000000000000000000000000000000000000000000000000000000000000000000000000000000000000000000000000000000000000000000000000000000000000000000000000000000000000000000000000000000000000000000000000000000000000000000000000000000000000000000000000000000000000000000000000000000000000000000000000000000000000000000000000000000000000000000000000000000000000000000000000000000000000000000000000000000000000000000000000000000000000000000000000000000000000000000000000000000000000000000000000000000000000000000000000000000000000000000000000000000000000000000000000000000000000000000000000000000000000000000000000000000000000000000000000000000000000000000000000000000000000000000000000000000000000000000000000000000000000000000000000000000000000000000000000000000000000000000000000000000000000000000000000000000000000000000000000000000000000000000000000000000000000000000000000000000000000000000000000000000000000000000000000000000000000000000000000000000000000000000000000000000000000000000000000000000000000000000000000000000000000000000000000000000000000000000000000000000000000000000000000000000000000000000000000000000000000000000000000000000000000000000000000000000000000000000000000000000000000000000000000000000000000000000000000000000000000000000000000000000000000000000000000000000000000000000000000000000000000000000000000000000000000000000000000000000000000000000000000000000000000000000000000000000000000000000000000000000000000000000000000000000000000000000000000000000000000000000000000000000000000000000000000000000000000000000000000000000000000000000000000000000000000000000000000000000000000000000000000000000000000000000000000000000000000000000000000000000000000000000000000000000000000000000000000000000000000000000000000000000000000000000000000000000000000000000000000000000000000000000000000000000000000000000000000000000000000000000000000000000000000000005400000000000000000000000000000000000000000000000000000000000000000000000000000000000000000000000000000000000000000000000000000000000000000000000000000000000000000000000000000000000000000000000000000000000000000000000000000000000000000000000000000000000000000000000000000000000000000000000000000000000000000000000000000000000000000000000000000000000000000000000000000000000000000000000000000000000000000000000000000000000000000000000000000000000000000000000000000000000000000000000000000000000000000000000000000000000000000000000000000000000000000000000000000000000000000000000000000000000000000000000000000000000000000000000000000000000000000000000000000000000000000000000000000000000000000000000000000000000000000000000000000000000000000000000000000000000000000000000000000000000000000000000000000000000000000000000000000000000000000000000000000000000000000000000000000000000000000000000000000000000000000000000000000000000000000000000000000000000000000000000000000000000000000000000000000000000000000000000000000000000000000000000000000000000000000000000000000000000000000000000000000000000000000000000000000000000000000000000000000000000000000000000000000000000000000000000000000000000000000000000000000000000000000000000000000000000000000000000000000000000000000000000000000000000000000000000000000000000000000000000000000000000000000000000000000000000000000000000000000000000000000000000000000000000000000000000000000000000000000000
#0263a0:000000000000000000000000143400003400240000000000
#026360:0000000000340000
#0273b0:00130000000023000000000000000000
#027370:00000033000000000000000000000000
#027360:00000000000000000013000000002300
#027320:00000000000000000000003300000000
#028370:00130000000000000000000000000000
#0283b0:00000023000000000000000000000000
#028361:00000013000000000000000000000000
#028321:0000002300000000
#028381:0000000013230000
#0293b1:00130000000000000000000000000000
#029371:00000023000000000000000000000000
#029320:00000013000000000000000000000000
#029360:00000000002300000000000000000000
#029370:0013
#0293b0:0000000000230000
#029360:00000000000000000000001300000000
#029320:00000000000000000000000000230000
#031320:00130000000023000000000000000000
#031360:00000033000000000000000000000000
#031370:00000000000000000013000000002300
#0313b0:00000000000000000000003300000000
#032360:00130000000000000000000000000000
#032320:00000023000000000000000000000000
#032371:00000013000000000000000000000000
#0323b1:0000002300000000
#032351:0000000013230000
#033321:00130000000000000000000000000000
#033361:00000023000000000000000000000000
#0333b0:00000013000000000000000000000000
#033370:00000000002300000000000000000000
#033360:00000000000000000013000000000000
#033320:00000000000000000000002300000000
#033371:00000000000000000000001300000000
#0333b1:00000000000000000000000000230000
#0353b1:1323
#035371:00530000
#035320:0013
#035360:00000053
#036320:23
#038320:13000023
#038360:0000005300000000
#038371:00000013
#0383b1:0000000000000023
#038320:0000000000000013
#039360:23
#0393b1:13
#039371:00000023000000000000000000000000
#039320:00000013000000000000000000000000
#039360:0000002300000000
#0393b1:00000000000013230000000000000000
#039320:00000000000000132300000000000000
#039371:0013
#0393b1:0000000000000023
#039350:00000000000000000000000000001323
#039381:00000000000000000000000000000013
#040381:23
#040320:13
#040360:00000023000000000000000000000000
#0403b1:00000013000000000000000000000000
#040371:0000002300000000
#040320:0000001300000023
#040340:0000000000000000000000000053000053000000000000005300005300000000
#040330:00000000000000530000000000530000
#040350:0000000000000000000000000000005300005300000053000053000000000000
#040360:0000000000000000000000000000000000530000530000530000000000000000
#040370:0000000000000000000000000000000000000053005300000000000000000000
#042320:13230000
#042360:0053000000000000
#042320:0000000013230000
#0423b0:0000000000001323
#0433b0:13230000
#043370:0053000000000000
#043380:00000000000016260000000000000000
#043321:00000000000000162600000000000000
#043380:0000000016230000
#043321:0000000000160000
#043351:00000023
#043380:0000000000001326
#043351:0000000000000013
#044321:36260000
#044380:16260000
#0463b0:0013
#046370:0000000000230000
#046320:00000000000000000000001300002300
#046360:0000000000000000000000000000000000000000000000000053000000000000
#047370:0000001300000000
#0473b0:0023
#047321:0013
#047361:0000000000230000
#0473b1:00000000000000000000001300002300
#047371:0000000000000000000000000000000000000000000000000053000000000000
#048381:0000000000000000000000000000000014000054000024000000000000000000
#048361:000000000000000000000000000000000000000000000000000000000000000000000000000000000000000000000000000000000000000000000000000000000000000000000000000000000000000000000000000000000000000000000000000000000000000000000000000000000000000000000000000000000000000000000000000000000000000000000000000000000000000000000000000000000000000000000000000000000000000000000000000000000000000000000000000000000000000000000000000000000000000000000000000000000000000000000000000000000000000000000000000000000000000000000000000000000000000000000000000000000000000000000000000000000000000000000000000000000000000000000000000000000000000000000000000000000000000000000000000000000000000000000000000000000000000000000000000000000000000000000000000000000000000000000000000000000000000000000000000000000000000000000000000000000000000000000000000000000000000000000000000000000000000000000000000000000000000000000000000000000000000000000000000000000000000000000000000000000000000000000000000000000000000000000000000000000000000000000000000000000000000000000000000000000000000000000000000000000000000000000000000000000000000000000000000000000000000000000000000000000000000000000000000000000000000000000000000000000000000000000000000000000000000000000000000000000000000000000000000000000000000000000000000000000000000000000000000000000000000000000000000000000000000000000000000000000000000000000000000000000000000000000000000000000000000000000000000000000000000000000000000000000000000000000000000000000000000000000000000000000000000000000000000000000000000000000000000000000000000000000000000000000000000000000000000000000000000000000000000000000000000000000000000000000000000000000000000000000000000000000000000000000000000000000000000000000000000000000000000000000000000000000000000000000000000000000000000000000000000000000000000000000000000000000000000000000000000000000000000000000000000000000000000000000000000000000000000000000000000000000000000000000000000000000000000000000000000000000000000000000000000000000000000000000000000000000000000000000000000000000000000000000000000000000000000000000000000000000000000000000054000000000000000000000000000000000000000000000000000000000000000000000000000000000000000000000000000000000000000000000000000000000000000000000000000000000000000000000000000000000000000000000000000000000000000000000000000000000000000000000000000000000000000000000000000000000000000000000000000000000000000000000000000000000000000000000000000000000000000000000000005400000000000000000000000000000000000000000000000000000000000000000000000000000000000000000000000000000000000000000000000000000000000000000000000000000000000000000000000000000000000000000000000000000000000000000000000000000000000000000000000000000000000000000000000000000000000000000000000000000000000000000000000000000000000000000000000000000000000000000000000000000000000000000000000000000000000000000000000000000000000000000000000000000000000000000000000000000000000000000000000000000000000000000000000000000000000000000000000000000000000000000000000000000000000000000000000000000000000000000000000000000000000000000000000000000000000000000000000000000000000000000000000000000000000000000000000000000000000000000000000000000000000000000000000000000000000000000000000000000000000000000000000000000000000000000000000000000000000000000000000000000000000000000000000000000000000000000000000000000000000000000000000000000000000000000000000000000000000000000000000000000000000000000000000000000000000000000000000000000000000000000000000000000000000000000000000000000000000000000000000000000000000000000000000000000000000000000000000000000000000000000000000000000000000000000000000000000000000000000000000000000000000000000000000000000000000000000000000000000000000000000000000000000000000000000000000000000000000000000000000000000000000000000000000000000000000000000000000000000000
#0483a1:000000000000000000000000000000000000000000000000000000000000000000000000000000000000000000000000000000000000000000000000000000000000000000000000000000000000000000000000000000000000000000000000000000000000000000000000000000000000000000000000000000000000000000000000000000000000000000000000000000000000000000000000000000000000000000000000000000000000000000000000000000000000000000000000000000000000000000000000000000000000000000000000000000000000000000000000000000000000000000000000000000000000000000000000000000000000000000000000000000000000000000000000000000000000000000000000000000000000000000000000000000000000000000000000000000000000000000000000000000000000000000000000000000000000000000000000000000000000000000000000000000000000000000000000000000000000000000000000000000000000000000000000000000000000000000000000000000000000000000000000000000000000000000000000000000000000000000000000000000000000000000000000000000000000000000000000000000000000000000000000000000000000000000000000000000000000000000000000000000000000000000000000000000000000000000000000000000000000000000000000000000000000000000000000000000000000000000000000000000000000000000000000000000000000000000000000000000000000000000000000000000000000000000000000000000000000000000000000000000000000000000000000000000000000000000000000000000000000000000000000000000000000000000000000000000000000000000000000000000000000000000000000000000000000000000000000000000000000000000000000000000000000000000000000000000000000000000000000000000000000000000000000000000000000000000000000000000000000000000000000000000000000000000000000000000000000000000000000000000000000000000000000000000000000000000000000000000000000000000000000000000000000000000000000000000000000000000000000000000000000000000000000000000000000000000000000000000000000000000000000000000000000000000000000000000000000000000000000000000000000000000000000000000000000000000000000000000000000000000000000000000000000000000000000000000000000000000000000000000000000000000000000000000000000000000000000000000000000000000000000000000000000000000000000000000000000000000000000000000000000005400000000000000000000000000000000000000000000000000000000000000000000000000000000000000000000000000000000000000000000000000000000000000000000000000000000000000000000000000000000000000000000000000000000000000000000000000000000000000000000000000000000000000000000000000000000000000000000000000000000000000000000000000000000000000000000000000000000000000000054000000000000000000000000000000000000000000000000000000000000000000000000000000000000000000000000000000000000000000000000000000000000000000000000000000000000000000000000000000000000000000000000000000000000000000000000000000000000000000000000000000000000000000000000000000000000000000000000000000000000000000000000000000000000000000000000000000000000000000000000000000000000000000000000000000000000000000000000000000000000000000000000000000000000000000000000000000000000000000000000000000000000000000000000000000000000000000000000000000000000000000000000000000000000000000000000000000000000000000000000000000000000000000000000000000000000000000000000000000000000000000000000000000000000000000000000000000000000000000000000000000000000000000000000000000000000000000000000000000000000000000000000000000000000000000000000000000000000000000000000000000000000000000000000000000000000000000000000000000000000000000000000000000000000000000000000000000000000000000000000000000000000000000000000000000000000000000000000000000000000000000000000000000000000000000000000000000000000000000000000000000000000000000000000000000000000000000000000000000000000000000000000000000000000000000000000000000000000000000000000000000000000000000000000000000000000000000000000000000000000000000000000000000000000000000000000000000000000000000000000000000000000000000000000000000000000000000000000000000000000
#048340:0000000000000000000000000000000014000054000024000000000000000000
#048360:00000000000000000000000000000000000000000000000000000000000000000000005400000000005400000000000000000000000000000000000000000000
#048320:000000000000000000000000000000000000000000000000000000000000000000000000000000000000000000000000000000000000000000000000000000000000000000000000000000000000000000000000000000000000000000000000000000000000000000000000000000000000000000000000000000000000000000000000000000000000000000000000000000000000000000000000000000000000000000000000000000000000000000000000000000000000000000000000000000000000000000000000000000000000000000000000000000000000000000000000000000000000000000000000000000000000000000000000000000000000000000000000000000000000000000000000000000000000000000000000000000000000000000000000000000000000000000000000000000000000000000000000000000000000000000000000000000000000000000000000000000000000000000000000000000000000000000000000000000000000000000000000000000000000000000000000000000000000000000000000000000000000000000000000000000000000000000000000000000000000000000000000000000000000000000000000000000000000000000000000000000000000000000000000000000000000000000000000000000000000000000000000000000000000000000000000000000000000000000000000000000000000000000000000000000000000000000000000000000000000000000000000000000000000000000000000000000000000000000000000000000000000000000000000000000000000000000000000000000000000000000000000000000000000000000000000000000000000000000000000000000000000000000000000000000000000000000000000000000000000000000000000000000000000000000000000000000000000000000000000000000000000000000000000000000000000000000000000000000000000000000000000000000000000000000000000000000000000000000000000000000000000000000000000000000000000000000000000000000000000000000000000000000000000000000000000000000000000000000000000000000000000000000000000000000000000000000000000000000000000000000000000000000000000000000000000000000000000000000000000000000000000000000000000000000000000000000000000000000000000000000000000000000000000000000000000000000000000000000000000000000000000000000000000000000000000000000000000000000000000000000000000000000000000000000000000000000000000000000000000000000000000000000000000000000000000000000000000000000000000000000000000000000000000005400000000000000000000000000000000000000000000000000000000000000000000000000000000000000000000000000000000000000000000000000000000000000000000000000000000000000000000000000000000000000000000000000000000000000000000000000000000000000000000000000000000000000000000000000000000000000000000000000000000000000000000000000000000000000000000000000000000000000000054000000000000000000000000000000000000000000000000000000000000000000000000000000000000000000000000000000000000000000000000000000000000000000000000000000000000000000000000000000000000000000000000000000000000000000000000000000000000000000000000000000000000000000000000000000000000000000000000000000000000000000000000000000000000000000000000000000000000000000000000000000000000000000000000000000000000000000000000000000000000000000000000000000000000000000000000000000000000000000000000000000000000000000000000000000000000000000000000000000000000000000000000000000000000000000000000000000000000000000000000000000000000000000000000000000000000000000000000000000000000000000000000000000000000000000000000000000000000000000000000000000000000000000000000000000000000000000000000000000000000000000000000000000000000000000000000000000000000000000000000000000000000000000000000000000000000000000000000000000000000000000000000000000000000000000000000000000000000000000000000000000000000000000000000000000000000000000000000000000000000000000000000000000000000000000000000000000000000000000000000000000000000000000000000000000000000000000000000000000000000000000000000000000000000000000000000000000000000000000000000000000000000000000000000000000000000000000000000000000000000000000000000000000000000000000000000000000000000000000000000000000000000000000000000000000000000000000000000000000000000
#049320:12545634525528000000000000000000
#0493a1:14000034005400000000000000000000
#0493b1:00530000000000000000000000000000
#0493c1:0052002200000000
#049381:00560000
#0493c1:00001252
#0493a1:00000000000000000054003400002400
#049381:0000000000560000
#0493b1:00000000000000000000000000530000
#049320:00000000000000001855523456542200
#050320:12545634525436002600000000000000
#0503a1:14
#0503b1:00530000000000000000000000000000
#0503c1:0052000000000000
#050391:00000035000000000000000000000000
#050361:00580000
#050371:00000000005700000000000000000000
#050381:0000003626000000
#051361:12
#051321:00000022000000000000000000000000
#0513c0:00000012000000000000000000000000
#051380:0000002200000000
#051361:0000001222000000
#0513c0:00001222
#051380:0000000000520000
#051341:0000000000001222
#051380:0000000000000012
#052380:22
#052321:12
#052361:00000022000000000000000000000000
#0523c0:00000012000000000000000000000000
#052380:0000002200000000
#052341:0000001222000000
#052380:00001222
#0523c0:0000000000520000
#053360:12
#053320:0022
#0533c1:00000012000000000000000000000000
#053381:0000002200000000
#053381:0012
#0543c1:22
#054360:12
#054320:0022000000000000
#0543c0:00120000
#054380:0000002200000000
#054320:0012
#054360:0000000000220000
#0553b0:13
#055370:00230000
#0553b0:0013
#055370:00000053
#0563b0:23
#0563b0:0013
#056370:00000023
#057320:13
#057360:00230000
#057320:0013
#057360:00000053
#058320:23
#058320:0013
#058360:00000023
#059380:160000540000560000530000550000530000550000520000540000520000540000520000530000510000530000510000330052003300520034005300340053003500540035005400260000000000000000000000000000000000000000000000
#059321:16560000000000000000000026000000
#059341:000000540000000000000000000000000000000000000000540000000000540000000000000000000000000000000000000000000000000034000000340000000000540000005400000000000000000000000000000000000000000000000000
#059351:000000000000000000530000000000530000000000000000000000000000000000000000530000000000530000000000330000003300000000005300000053000000000000000000000000000000000000000000000000000000000000000000
#059331:000000000000550000550000000000000000000000000000000000000000000035003500000000000000000000000000
#059361:000000000000000000000000000000000000000000520000000000520000000000520000000000000000000000000000000052000000520000000000000000000000000000000000000000000000000000000000000000000000000000000000
#059371:0000000000000000000000000051005100000000000000000000000000000000
#060321:00130000000000000000000000000000
#060361:00000023000000000000000000000000
#0603b0:00000013000000000000000000000000
#060370:00000000002300000000000000000000
#060370:00000000000000000013000000000000
#0603b0:00000000000000000000002300000000
#060361:00000000000000000000001300000000
#060321:00000000000000000000000000230000
#061321:00130000002300000000000000000000
#061361:00000033000000000000000000000000
#061371:0000001300000000
#0613b1:0023
#062321:00130023000000000000000000000000
#062361:0053000000000000
#0623b0:00000013002300000000000000000000
#062370:00530000
#062370:00000000000000000013000000000000
#0623b0:0000000000530000
#062380:00000000000000000000002300000000
#062351:00000000000000000000001300000000
#062321:00000053
#062361:00000000000000000000000000230000
#063321:13
#063351:0023000000000000
#0633b1:00130000
#063381:0000002300000000
#0643b1:00130000000000000000000000000000
#064371:00000023000000000000000000000000
#064320:00000013000000000000000000000000
#064360:00000000002300000000000000000000
#064360:00000000000000000013000000000000
#064320:00000000000000000000002300000000
#064371:00000000000000000000001300000000
#0643b1:00000000000000000000000000230000
#0653b1:00130000002300000000000000000000
#065371:00000033000000000000000000000000
#065361:0000001300000000
#065321:0023
#0663b1:13
#066371:0023000000000000
#066321:00000013000000000000000000000000
#066361:0000002300000000
#066321:00000000000000000013000000000000
#066361:00000000000000000000002300000000
#0663b1:00000013
#066371:0000000000000023
#0683a1:0000000014240000
#068321:0000000000001424
#070371:00130000
#0703b1:0000002300000000
#0703b1:0013
#070371:00000000000000000000002300000000
#070321:00000013
#070361:0000000000000023
#071371:13000023000000000000000000000000
#0713b1:0000005300000000000000000000000000000000000000000000000000000000
#071371:00130000
#0713b1:0000002300000000
#0723b1:13000023000000000000000000000000
#072371:0000005300000000000000000000000000000000000000000000000000000000
#072361:00130000
#072321:0000002300000000
#072321:0013
#072361:00000000000000000000002300000000
#0723b1:00000013
#072371:0000000000000023
#073361:0014
#073321:0000002c
