This file was generated by Ched 2.7.0.0.
#TITLE ""
#ARTIST ""
#DESIGNER ""
#DIFFICULTY 0
#PLAYLEVEL
#SONGID ""
#WAVE ""
#WAVEOFFSET 0
#JACKET ""
#REQUEST "ticks_per_beat 480"
#00002: 4
#BPM01: 127.0
#00008: 01
#TIL00: ""
#VOLUME: ""
#HISPEED 00
#MEASUREHS 00
#0141a:1414
#01414:00140014
#01410:41
#02618:14
#02614:00140000
#02612:00000014
#0261a:0014
#04212:14
#04218:0014
#04214:00000014
#0431a:14
#04314:0014
#04318:00000014
#04412:14
#04418:0014
#04414:00000014
#0001a:14
#01018:0014
#0101a:14
#0111a:14
#0151a:14
#04518:14
#04612:14
#04618:00140000
#04614:0014
#0461a:00000014
#04812:14
#04818:00140000
#04814:0014
#0481a:00000014
#06012:0014
#06018:00140000
#0601a:00000014
#06014:24
#0601f:21
#06114:14
#06112:00001414
#06118:00140000
#0611a:0000000000140000
#06110:41
#07312:00140000
#00112:14
#00218:14
#00314:14140000
#00318:00001414
#00514:1414
#00518:00140014
#00612:1414
#0061a:00140014
#00812:14
#00818:0014
#00814:00000014
#00718:00140014
#00714:1414
#00412:1414
#0041a:00140014
#00410:41
#0091a:14
#00916:00140014
#00912:0014
#01214:0014
#01212:14
#01312:14
#01612:1414
#01618:00140014
#01712:14
#01818:14
#01814:00140000
#0181a:0014
#01812:00000014
#01918:14
#02014:14
#02018:00140000
#02012:0014
#0201a:00000014
#02114:14
#02718:0014
#02712:00140000
#02714:00000014
#0271a:24
#02710:41
#0281a:14
#02818:00001414
#02812:00140000
#02814:0000000000140000
#02918:00140000
#02912:14
#02914:0014
#0291a:00000014
#03012:14
#03016:00140000
#03114:0014
#0311a:00140000
#03118:00000014
#03112:24
#03212:14
#03214:00001414
#0321a:00140000
#03218:0000000000140000
#03314:00140000
#0331a:14
#03318:0014
#03312:00000014
#0341a:14
#03416:00140000
#03518:0014
#03514:00000014
#0361a:14
#03616:00140014
#03612:0014
#03814:14
#03812:00343400
#03810:41
#03918:14
#0391a:00343400
#0411a:14
#04118:00343400
#04012:14
#04014:00343400
#04714:14
#0471a:00140000
#04712:0014
#04718:00000014
#04916:1414
#04912:00140000
#0491a:00000014
#04910:41
#0551a:14
#05518:00140000
#05612:14
#05614:00140000
#05814:14
#05812:00140000
#05718:14
#0571a:00140000
#0621a:14
#06216:00140014
#06212:0014
#0631a:14
#06316:00140000
#06312:0014
#0641a:0014
#06414:00140000
#06412:00000014
#06418:24
#06518:14
#0651a:00001414
#06514:00140000
#06512:0000000000140000
#06612:14
#06616:00140014
#0661a:0014
#06712:14
#06716:00140000
#06814:0014
#06818:00000014
#06912:14
#06916:00140014
#0691a:0014
#07015:0014
#07012:14
#07118:0014
#07217:0014
#0721a:14
#0511f:11
#05014:24
#03719:00000034000034000000000000000000
#03718:00000000000000000034000000000000
#01058:0054
#0105a:54
#0115a:54
#0155a:54
#0005a:64
#00152:54
#00258:54
#00852:14
#01254:0064
#01252:64
#01352:64
#01752:64
#01958:64
#02154:54
#0275a:14
#0305a:00000014
#03152:14
#03854:64
#03958:54
#0415a:64
#04052:54
#0435a:14
#04452:14
#04252:14
#0455a:00000014
#04558:54
#05558:00240000
#0555a:64
#05652:54
#05654:00240000
#05854:64
#05852:00240000
#05758:54
#0575a:00240000
#06054:14
#06354:00000014
#06352:0054
#06458:14
#07055:0024
#07052:54
#07158:0054
#07257:0024
#0725a:64
#07358:00000014
#0003a0:14
#000380:0024
#001320:14
#001340:0024
#002380:14
#0023a0:0024
#0103a0:14
#010380:0034
#0113a0:34
#011380:0024
#012320:14
#012340:0034
#013320:34
#013340:0024
#0153a0:14
#015380:0024
#017320:14
#017340:0024
#019380:14
#0193a0:0024
#021340:14
#021320:0024
#0223a0:14
#022380:0034
#023380:34
#0233a0:0024
#024320:14
#024340:0034
#025340:34
#025320:0024
#0303a0:00001424
#034320:0014
#034340:00000034
#035320:24
#0373a0:14
#037390:00000034000034000000000000000000
#037380:00000000000000000034000024000000
#038340:14
#038320:00343424
#039380:14
#0393a0:00343424
#040320:14
#040340:00343424
#0413a0:14
#041380:00343424
#045380:14
#0453a0:00003424
#050340:14
#050320:00000024
#051380:14
#0513a0:0034
#052380:34
#0523a0:0024
#053340:14
#053320:0034
#054340:34
#054320:0024
#0553a0:1424
#055380:00540000
#056320:1424
#056340:00540000
#057380:1424
#0573a0:00540000
#058340:1424
#058320:00540000
#0593a0:14
#059380:00003424
#063320:0014
#063340:00000024
#0673a0:0014
#067380:00000034
#0683a0:24
#070320:14
#070350:0054
#071320:24
#071380:0014
#0723a0:34
#072370:0054
#0733a0:24
#073380:00001424
