This file was generated by Ched 2.7.0.0.
#TITLE ""
#ARTIST ""
#DESIGNER ""
#DIFFICULTY 0
#PLAYLEVEL
#SONGID ""
#WAVE ""
#WAVEOFFSET 0
#JACKET ""
#REQUEST "ticks_per_beat 480"
#00002: 4
#BPM01: 240
#00008: 01
#TIL00: ""
#VOLUME: ""
#HISPEED 00
#MEASUREHS 00
#0081a:14
#00914:14
#01018:14
#01112:14
#0121a:14
#01314:14
#01418:14
#01512:14
#0161a:14
#01610:41
#0171a:14
#01814:14
#01914:14
#02018:14
#02118:14
#0241a:14
#02514:14
#02618:14
#02712:14
#02819:14
#02919:14
#03013:14
#03113:14
#04418:14
#04414:0014
#04518:14
#04514:0014
#04818:0016
#04812:26
#04810:41
#04912:16
#04918:0016
#05618:16
#05612:0016
#05012:1616
#05118:1616
#05212:16
#05218:0016
#05312:16
#05318:0016
#05412:1616
#05718:16
#05712:0016
#05818:1616
#05912:1616
#06018:16
#06012:0016
#06118:16
#06112:0016
#06218:1616
#06312:1616
#0681a:14
#06810:41
#06914:14
#0701a:14
#07114:14
#07218:14
#07312:14
#07418:14
#07512:14
#09212:0016
#09218:26
#0921f:21
#09318:16
#09312:0016
#09418:1616
#09410:41
#09512:1616
#09618:16
#09612:0016
#09718:16
#09712:0016
#09818:1616
#10012:16
#10018:0016
#10112:16
#10118:0016
#10212:1616
#10318:1616
#10412:16
#10418:0016
#10512:16
#10518:0016
#10612:1616
#10718:1616
#1121a:14
#11314:14
#1141a:14
#11514:14
#11618:14
#11610:41
#11818:14
#11712:14
#11912:14
#1201a:14
#1211a:14
#12214:14
#12314:14
#12418:14
#12518:14
#1281a:14
#12914:14
#13018:14
#13112:14
#13518:14
#13514:0014
#13412:0014
#0761f:11
#1361a:24
#00614:34
#00514:34
#00218:34
#00118:34
#13318:34
#13218:00003434
#03210:41
#0003a0:14
#001380:34
#002380:34
#003380:24
#004320:14
#005340:34
#006340:34
#007340:24
#022320:140000000000000000000024
#0323a0:14
#033390:34
#034380:34
#035380:24
#036320:14
#037330:34
#038340:34
#039340:24
#0403a0:14
#0413a0:24
#042320:14
#043320:24
#046380:14343434
#047380:24
#055320:1626
#064380:16
#065380:26
#066320:16
#067320:26
#0763a0:14
#077380:34
#0783a0:34
#0793a0:24
#080320:14
#081340:34
#082320:34
#083320:24
#084380:14
#0853a0:34
#086380:34
#087380:24
#088340:14
#089320:34
#090340:34
#091340:24
#099380:1626
#108320:1626
#109380:1626
#110320:16
#111320:26
#126320:140000000000000000000024
#1323a0:14
#132380:00003434
#133380:34340000
#134380:24
