This file was generated by Ched 2.7.0.0.
#TITLE ""
#ARTIST ""
#DESIGNER ""
#DIFFICULTY 0
#PLAYLEVEL
#SONGID ""
#WAVE ""
#WAVEOFFSET 0
#JACKET ""
#REQUEST "ticks_per_beat 480"
#00002: 4
#BPM01: 240
#00008: 01
#TIL00: ""
#VOLUME: ""
#HISPEED 00
#MEASUREHS 00
#00015:00120012
#00115:00120012
#00419:00120012
#00519:00120012
#00314:00120012
#0021a:00120012
#00614:00120012
#00612:0012
#01118:00000013
#01115:000013
#01117:13
#0111b:00130000
#01116:0014
#01516:00120000
#01518:0012
#0151a:14000012
#01512:14
#01712:00130013
#01718:001300000000
#01715:13
#0171b:0013
#01716:000000000000000000000014
#0161b:000000000000130000000013
#01612:26001313
#01618:260013
#01610:41
#01812:130000000013000000000000
#01816:00141414
#0181b:001300001300
#0191a:00140000
#0191b:00001313
#01918:000000000000000000000013
#01915:000000000013
#01917:13
#01912:0013
#0201b:0013
#02019:000013
#02016:000000000000001300000000
#02014:00000013
#02012:13
#02119:13
#02117:001300000000
#02114:001300000000000000000000
#0211b:0013
#02115:000000000000000000130013
#02118:000000000013
#02112:00131300
#02216:000000000014000014000028
#0221a:24142400
#02212:00240024
#02312:00130000
#02317:00130000
#02319:0013
#0231b:00000013
#02316:00000013
#02314:0013
#0251b:00130013
#02515:001300000000
#02518:13
#02512:0013
#02516:000000000000000000000014
#02412:260000000000130000000013
#0241b:00001313
#02415:000013
#02418:26
#0261b:130000000013000000000000
#02616:00141414
#02612:001300001300
#0291b:00230013
#02918:000000000000000000000013
#02915:00000013
#02914:13
#02916:001300000000
#02919:001300000000000000000000
#0301b:00000013
#03017:00130000
#03019:0013
#03012:23230000
#03014:0023
#03016:00000023
#03116:00130000
#03114:0013
#03112:13000013
#0311b:23230000
#03119:0023
#03117:00000023
#0321b:13
#03219:00130013
#03217:0013
#03212:0014
#03216:14
#03210:41
#0331b:13
#03319:00130013
#03317:0013
#03312:0014
#03316:14
#0341b:13
#03416:1414
#03419:00130000
#03414:00000013
#03512:00140000
#03516:14
#0351b:0013
#03518:00130000
#03612:13
#03617:13000013
#03616:00130000
#0361b:00130000
#0371b:13
#03716:13000013
#03717:00130000
#03712:00130000
#03816:003434143434140000130000
#0381a:000000000000003434143434
#03817:13
#0381b:00130000
#03812:14
#03912:13
#0401b:00001313
#04017:00130000
#04012:24
#0401a:24
#04117:13
#04119:00130013
#0411b:0013
#04114:00130013
#04116:0013
#04212:13000013
#0421b:000000000013000000000000
#04217:13
#04316:1313
#04317:00130013
#04312:000000000000003333000000
#0441b:0013
#04419:00130000
#04414:00000013
#04416:2424
#04512:13
#04519:00130000
#0451b:0013
#04514:00000013
#04516:2424
#04818:00130013
#0481b:0013
#04812:2413
#04815:000013
#0481a:24
#04810:41
#0491b:1313
#04912:1313
#04915:00130013
#04918:000013
#05012:1313
#05016:00130000
#05017:1324
#05018:000024
#05019:000000000024
#05117:00130000
#05116:13000013
#05112:0013
#0511b:000000131300
#0511a:24
#05217:13
#0521b:000000130000000013000000
#05212:00130013
#05218:000000000013000000000013
#05215:0013
#05315:13
#05312:00130013
#0531b:00130013
#05318:0013
#05414:14
#05418:001400000000000000000000
#05413:001400000000
#05419:00140000
#0541a:000000000014000000140000
#05412:000014140000
#05512:140000000000001400000000
#05516:14140000
#0551a:0014
#05519:000014
#05513:00000014
#05514:000000000000000000000014
#05518:000000000014
#05612:000000130000000000000013
#05616:0013
#0561b:000000000013000000130000
#05618:26
#05717:13000013
#05712:00130013
#0571b:000000000013000000000000
#05716:0013
#0581b:1313
#05812:00130000
#05815:0024
#05814:000024
#05813:000000000024
#05917:13
#05916:00130000
#05912:2413
#0591b:0023
#06012:00131300
#0601b:000000130000000000000013
#06017:000000000013000000000000
#06019:000013
#06014:00000013
#06116:1313
#0611b:0013
#06117:00130013
#0621b:00131300
#06212:240000130000000000000013
#06216:000000000013000000000000
#06214:000013
#06219:00000013
#0621a:24
#06317:1313
#06312:0013
#06316:00130013
#06416:0014
#06412:24
#0641a:24
#0651a:141400141400
#06512:001400000000001400000000
#06514:000000140014000000140014
#06518:000014000014
#06712:14
#0661a:14
#06812:1313
#06817:1313
#06816:00130013
#0681b:000013
#06810:41
#0691b:1313
#06916:1313
#06917:00130013
#06912:000013
#07012:13132400
#0701b:13
#07017:0013
#07016:000000000024
#07014:000024
#0711b:1313
#07116:2414
#07112:003434143434000000000000
#07117:00130000
#07216:000000130000003333000000
#07212:24
#0721a:24
#07217:000000003333000000003333
#07316:003333003333000000130000
#07317:0013
#0731b:00130000
#07412:141400000000
#07413:001400
#07414:000000141400
#07415:000000000014
#0741a:000000000000000000140014
#07419:000000000000001400000000
#07418:000000140014000000000000
#07417:001400000000000000000000
#07616:14
#0761c:0012
#0761f:11
#07516:14
#0781a:12
#07816:12
#0781c:0012
#0771c:0012
#07714:12
#07718:12
#07914:12
#07918:12
#0791c:0012
#08018:12
#0801a:0012
#08012:12
#0811c:12
#08114:0012
#08212:12
#0821a:0012
#0831c:12
#0831a:00120000
#08318:0012
#08312:0012
#08314:00120000
#09216:00140000
#09215:00000013
#09218:000013
#09212:2623
#0921b:0023
#0921f:21
#09316:00140000
#09315:000013
#09318:00000013
#0931b:2323
#09312:2323
#09417:00130000
#09416:13
#0941b:2313
#09413:000000000024
#09414:000024
#09415:0024
#09410:41
#09516:00130000
#09517:13000013
#0951b:0013
#09512:240000131300
#09616:13
#09612:000000130000000013000000
#0961b:00130013
#09615:000000000013000000000013
#09618:0013
#09718:13
#0971b:00130013
#09712:00130013
#09715:0013
#09818:14
#09814:001400000000000000000000
#09819:001400000000
#09813:00140000
#09812:000000000014000000140000
#0981a:000014140000
#0991a:140000000000001400000000
#09916:14140000
#09912:0014
#09913:000014
#09919:00000014
#09918:000000000000000000000014
#09914:000000000014
#1001a:000000140000000000000014
#10016:0014
#10012:260000000014240000140000
#10116:14001413
#1011a:24140014
#10112:000000000014240000000000
#10212:1413
#1021b:00130000
#10219:000000000024
#10218:000024
#10217:0024
#10316:13
#10317:00130000
#1031b:0013
#1031a:24
#10312:0023
#1041a:00141400
#10412:000000140000000000000014
#10416:000000000014000000000000
#10414:000014
#10418:00000014
#10516:14141414
#10512:0014
#10816:0014
#1081a:24
#10812:24
#10912:141400141400
#1091a:001400000000001400000000
#10918:000000140014000000140014
#10914:000014000014
#1111a:14
#11116:000000120012000000120000
#11118:001200
#11012:14
#08412:0013
#08418:000000000013000000000000
#0841b:230000000000000000000013
#08415:23
#08515:13130000
#08512:0013
#0851b:0013
#08518:000000000000000000000013
#08615:13130000
#0861a:0014
#08616:000014
#08612:000000000014
#08715:00130013
#0871b:131300001300
#08712:1313
#08718:000000000013000000000000
#0881b:2313
#08815:000000000013000000000000
#08812:230000000000000000000013
#08918:13130000
#0891b:0013
#08912:0013
#08915:000000000000000000000013
#09018:1323
#09012:001300001300
#09015:000000000013000000000013
#0901b:00230023
#0911b:0013
#09118:23
#11212:0013
#11214:00130013
#11216:1314
#1121a:24
#00912:14140000
#00919:00130013
#0091b:0013
#00917:13
#00916:0014
#01012:14
#0101b:0013
#01017:13
#01014:00000013
#01019:00130000
#01016:0014
#00819:00130013
#0081b:0013
#00816:0014
#00812:24
#11515:00000013
#11518:000013
#11516:1314
#11512:00130000
#1141a:14
#11412:0013
#11419:00000013
#11416:1314
#11414:00130000
#11312:0013
#11314:00130013
#11316:1314
#1131a:14140000
#10612:24141400
#1061a:240000140000000000000014
#10616:000000000014000000000000
#10618:000014
#10614:00000014
#10716:14141414
#1071a:0014
#12116:000000130000000000000014
#1211a:001400000000
#12114:13
#12117:0013
#1211b:00000013
#12112:00000013
#12018:260000000000000000000014
#12012:26001313
#12016:000014
#1201b:0013
#12015:00160000
#1221b:1313
#12216:000000140014000000140000
#12212:001300001300
#12316:13
#12312:000000140000130000000013
#12315:00000013
#1231b:000000130013
#1231a:14
#12512:0013
#12518:000000000000000000130013
#12515:000000000013
#1251b:001300000000130000000000
#12516:13
#12514:001300000000
#12519:00130000
#12616:000000000014000014000000
#12612:240000140000240000000028
#1261a:00240024
#1271b:00130000
#12716:00130000
#12714:0013
#12712:00000013
#12717:00000013
#12719:0013
#13312:001300000000000000130000
#13315:000000000000000000000013
#13318:000000000013
#13317:13
#13319:001300000000
#13314:00230000
#13412:00000013
#13416:00130024
#13414:0013
#1341a:24240000
#13418:0024
#12917:00130000
#12912:000014000000000000130000
#12919:13
#12916:000000000000130000000014
#1291b:00000013
#12814:000000000000000000000014
#1281b:00001313
#12816:000014
#12812:2613
#12815:00160000
#12818:26
#13012:1313
#13016:000000140014000000140000
#1301b:001300001300
#02712:00141313
#02716:13
#0271b:0013
#02715:000000000000000000000013
#02718:000000000013
#13112:140000130013
#1311b:000000000000130000000013
#13117:13
#1311a:00140000
#13118:00000013
#13516:14141414
#1351a:2424
#13512:00240024
#11918:00120000
#11916:0012
#11914:00000012
#1191a:14
#11912:14
#12418:13
#12414:0013
#12412:000013
#12419:000000000000001300000000
#12417:00000013
#00718:001300000000
#00715:00131300
#0071b:000000000013000000000000
#00713:000013
#00719:000000000000001300000000
#00717:000000000000000000130013
#00712:26
#0131a:14140000
#01314:00130013
#01312:0013
#01316:1314
#0141a:14
#01412:0013
#01416:1314
#01419:00000013
#01414:00130000
#01214:00130013
#01216:1314
#01212:0013
#0121a:24
#02812:0013
#02814:000013
#02817:000000000000001300000000
#0281b:23
#02819:00000023
#1161b:0013
#11619:00130013
#11617:13
#11616:0014
#11612:24
#11610:41
#11812:14
#11816:0014
#11817:23
#11819:00230000
#1181b:0023
#11814:00000023
#1171b:0013
#11719:00130013
#11717:13
#11712:14140000
#11716:0014
#13219:0013
#1321b:000013
#13214:000000000000001300000000
#13215:23
#13216:00000023
#04618:2626
#04612:00260026
#04718:26
#13612:26
#13618:26
#01752:00530000
#0195a:00140000
#01952:00140000
#01856:00000054
#0255b:00630000
#03256:54
#03252:0024
#0325b:13
#03356:54
#03352:0024
#03456:5454
#03556:5414
#03552:00240000
#0355b:0013
#0365b:00230000
#03657:53
#03756:63
#03752:00230000
#03856:00245400
#0385a:00000024
#03852:54
#04252:53000053
#0425b:000000000053000000000000
#04357:00530000
#04356:2353
#0445b:0013
#04452:13
#04456:1414
#04552:13
#0455b:0013
#04556:1414
#04652:00360036
#04658:4646
#04758:46
#04852:14
#0485a:14
#05057:53
#05156:53000053
#05252:13
#05257:13
#05355:53
#05358:0053
#05352:00230000
#0535b:00000023
#05556:54140000
#0555a:00140000
#05452:0054
#05456:00000014
#0545a:00000014
#05658:16
#05656:0053
#05757:63
#05756:0053
#05752:00000023
#0585b:53
#05957:63
#05956:00530000
#05952:0063
#0595b:0053
#06058:43
#06055:33
#06156:5353
#06157:00130013
#06357:6363
#06356:00130013
#06456:0024
#06452:54
#0665a:54
#06852:13
#06857:53
#06956:63
#0705b:53
#07057:0053
#0715b:5353
#07156:5454
#07152:00240000
#07157:00230000
#07357:0053
#07652:14
#07656:14
#07556:54
#08052:52
#0815c:62
#08252:52
#09456:63
#09557:63000063
#09656:13
#0965b:13
#09758:63
#09752:00000023
#09755:0063
#0975b:00230000
#09956:64140000
#09952:00140000
#09852:00000014
#0985a:0064
#09856:00000014
#10056:0064
#10052:16
#10156:5464
#1015a:00000024
#10252:64
#10356:53
#10357:00630000
#1035b:0053
#10352:0053
#10556:64146414
#10856:0024
#1085a:64
#11052:64
#09252:16
#09258:16
#10458:43
#10455:33
#0915b:0023
#09158:53
#10756:54145414
#12156:00530000
#12256:00000064
#12352:00140000
#12356:00140000
#1235a:24
#12957:00630000
#13652:16
#13658:16
#02656:00000064
#02752:00140000
#0275a:00140000
#13056:00000054
#1315a:00140000
#13152:24
#13156:00140000
#12852:16
#12858:16
#02256:000000000000000000000018
#12652:000000000000000000000018
#00852:14
#00856:0014
#00956:0014
#01056:0014
#01156:0014
#01552:14
#0155a:14
#01652:16
#01658:16
#02052:13
#02054:00000013
#02152:00130000
#02452:16
#02458:16
#07252:14
#0725a:14
#10652:14
#1065a:14
#11556:0014
#11456:0014
#11356:0014
#11256:0014
#1125a:14
#1195a:14
#11952:14
#12058:16
#12052:16
#12458:13
#12457:00000013
#01256:0014
#0125a:14
#01356:0014
#01456:0014
#0285b:13
#02859:00000013
#0295b:00130000
#11856:0014
#11756:0014
#11656:0014
#11652:14
#12559:00130000
#13255:13
#13256:00000013
#13354:00130000
#03952:13
#03956:14
#06752:14
#1115a:14
#000380:12
#0003c0:0032
#001380:32
#0013c0:0032
#002380:22
#002321:12
#002361:0032
#003321:22
#0033c0:12
#003380:0032
#0043c0:22
#004361:12
#004321:0032
#005361:32
#005321:0032
#006361:22
#0063c0:12
#007380:26
#011320:1323
#011360:00330000
#017320:00130000
#017360:0023
#018360:00000014
#019320:54240000
#0253b0:00130000
#025370:0023
#026360:00000014
#0273a0:54240000
#032360:14
#032320:0054
#033360:34
#033320:0054
#034360:34
#034320:0024
#034361:0014
#0353a1:24
#035360:1424
#035320:00540000
#036370:1323
#0363b0:00530000
#036321:00001323
#037361:1323
#037321:00530000
#0373b0:00001323
#038320:1424
#038360:003434343434000000000000
#038361:0014
#0383a1:000000000000003434343434
#039361:24
#040321:00130000
#040361:0023
#040361:00000013
#041321:23
#042321:13
#042361:000000000023000000000000
#0423b0:000000000013000000000000
#042370:00000023
#042321:00000013
#043361:53
#043321:00230000
#043370:00130000
#0433b0:0023
#043361:0013
#043321:000000000000003333333333
#044321:23
#050371:13
#0503b1:00230000
#051361:13
#051321:00230000
#051361:00000013
#052321:23
#053351:1323
#053321:00530000
#053380:0013
#0533b0:00000053
#054380:23
#054320:0014
#054360:00000024
#055360:14
#0553a0:00240000
#056360:0013
#056320:00000023
#057370:13
#0573b0:00230000
#057360:0013
#057320:00000053
#058360:23
#0583b1:13
#058371:00230000
#059371:13
#0593b1:00230000
#059360:00130000
#059320:0033
#059350:00000033
#060350:23
#0593b1:0013
#059381:00000033
#060381:23
#061361:13
#061321:00230000
#061361:0013
#061321:00000023
#063371:13
#0633b1:00230000
#063371:0013
#0633b1:00000023
#064321:14
#064361:0054
#065321:24
#0663a1:14
#067361:24
#068371:13
#0683b1:00230000
#069361:13
#069321:00230000
#0703b1:13
#070371:00230000
#070371:0013
#0713b1:3333
#071371:00530023
#071360:1434
#071320:003434343434000000240000
#0723b0:00130000
#072370:000000003333230000000000
#072321:0013
#072361:000000000000003333230000
#0723b0:00000013
#072370:000000000000000000003333
#073370:23
#073321:1323
#073361:003333333333000000000000
#073370:0013
#0733b0:00000023
#075360:14
#076320:24
#080320:12
#080360:0052
#081360:22
#0813c1:12
#081381:0052
#082381:22
#082320:12
#082360:0052
#083360:22
#091380:13
#0913b0:0053
#092380:26
#094360:13
#094320:00230000
#095370:13
#0953b0:00230000
#095370:00000013
#0963b0:23
#097380:1323
#0973b0:00530000
#097351:0013
#097321:00000053
#098351:23
#0983a1:0014
#098361:00000024
#099361:14
#099321:00240000
#100361:0014
#1003a1:00000024
#101361:14
#101321:00240000
#101361:0014
#1013a1:00000054
#102361:24
#102320:14
#102360:00240000
#103360:13
#103320:00230000
#103371:00130000
#1033b1:0033
#103381:00000033
#104381:23
#103320:0013
#103350:00000033
#104350:23
#105360:14
#1053a0:00240000
#105360:0014
#1053a0:00000024
#107360:14
#107320:00240000
#107360:0014
#107320:00000024
#1083a0:14
#108360:0054
#1093a0:24
#110320:14
#111360:24
#111380:00001222
#1153b0:1323
#115370:00330000
#121360:00130000
#121320:0023
#122360:00000014
#1233a0:54
#123360:00240000
#129370:00130000
#1293b0:0023
#130360:00000014
#131320:54
#131360:00240000
