This file was generated by Ched 2.7.0.0.
#TITLE ""
#ARTIST ""
#DESIGNER ""
#DIFFICULTY 0
#PLAYLEVEL
#SONGID ""
#WAVE ""
#WAVEOFFSET 0
#JACKET ""
#REQUEST "ticks_per_beat 480"
#00002: 4
#BPM01: 240
#00008: 01
#TIL00: ""
#VOLUME: ""
#HISPEED 00
#MEASUREHS 00
#00018:0013
#0001b:13
#0011b:13
#00515:13
#00418:13
#00215:0013
#00212:13
#00312:13
#0061b:0013
#00618:13
#0161b:2313
#01615:000000000000000013000013
#01618:00000013
#01612:23
#01610:41
#01715:00130000
#01718:130000000000000000130013
#01912:00130000
#0191b:00130000
#01815:00130013
#01812:1313
#02112:00000013
#02118:000000000000000000000013
#02312:00130000
#02315:0013
#02318:00000013
#02515:130000000000000000130013
#02518:00130000
#0271b:00130000
#02712:00130000
#02618:00130013
#0261b:1313
#02918:00000013
#02915:000000000000000000000013
#02912:00230000
#03218:0000001300000000
#0321b:13
#03210:41
#03315:0000001300000000
#03312:13
#03417:0013
#0341b:13
#0351b:13
#03518:00130000
#03612:0000001300000000
#03615:13
#03618:00000013
#0371b:0000001300000000
#03718:13
#03715:00000013
#03818:13130000
#03812:13130000
#0381b:00001313
#03815:00001313
#03912:13
#03918:13
#0401b:23130000
#04018:0013
#04015:00000013
#04012:23
#04112:13130000
#0411b:13
#04115:0013
#04118:00000013
#0421b:13
#04218:000000000013000000000000
#04312:00130000
#04315:0013
#04918:00130000
#04915:0013
#04912:00000013
#05015:13
#0501a:0024
#05014:000024
#05018:000000000024
#04812:130000000000000000000033
#04816:0013
#04810:41
#05112:14
#05116:00140000
#0511a:000014
#0531b:00130000
#05318:0013
#05315:00000013
#05212:000000000033130000000033
#05215:000000130000000033130000
#05418:13
#0541b:003333133333000000000000
#05412:13
#05415:003333133333000000000000
#05515:1313
#05512:00130013
#0551b:1313
#05518:00130013
#05618:000000000013000000000000
#05612:0013
#0561b:230000000000000000000013
#05615:23
#05715:13
#05712:0013
#0571b:0013
#05815:13
#05818:130024
#05812:0024
#05814:000000000024
#0591a:1414
#05916:00140000
#06015:000000000033130000000033
#06012:000000130000000033130000
#06115:1313
#0611b:0013
#06218:000000000033130000000033
#0621b:230000130000000033130000
#06212:23
#06318:1313
#06312:0013
#06415:00130013
#06418:0013
#06412:23
#0641b:23
#06512:1313
#06518:1313
#06515:00130013
#0651b:00130013
#0661b:0013
#06618:13
#06615:0013
#06612:13
#09315:00130000
#09318:0013
#0931b:00000013
#09418:130024
#09412:0024
#09414:000000000024
#09410:41
#0921b:130000000000000000000033
#09217:0013
#0921f:21
#09712:00130000
#09715:0013
#09718:00000013
#0961b:000000000033130000000033
#09618:000000130000000033130000
#09815:13
#09812:003333133333000000000000
#0981b:13
#09818:003333133333000000000000
#09918:1313
#0991b:00130013
#09912:1313
#09915:00130013
#10015:000000000013000000000000
#1001b:0013
#10012:230000000000000000000013
#10018:23
#10118:13
#1011b:0013
#10112:0013
#10218:130000000024
#10215:13
#1021a:0024
#10214:000024
#10418:000000000033130000000033
#1041b:000000130000000033130000
#10518:1313
#10512:0013
#10615:000000000033130000000033
#10612:230000130000000033130000
#1061b:23
#10715:1313
#1071b:0013
#10818:00130013
#10815:0013
#1081b:23
#10812:23
#1091b:1313
#10915:1313
#10918:00130013
#10912:00130013
#11012:0013
#11015:13
#11018:0013
#1101b:13
#11218:00130000
#11215:2313
#11212:00000013
#1121b:0013
#11318:1313
#11315:00130000
#1131b:00000013
#11312:0013
#11415:13000013
#11412:0013
#11418:00130000
#1141b:0013
#11518:13000013
#11515:00130000
#11512:0013
#1151b:0013
#12012:2313
#12018:000000000000000013000013
#12015:00000013
#1201b:23
#1211b:00130000
#12112:000000000000000000130013
#12115:13
#1231b:00130000
#12312:00130000
#1221b:00130000
#12212:00000013
#12215:0013
#12218:13
#12518:00000013
#12515:000000000000000000000013
#1271b:00130000
#12718:0013
#12715:00000013
#13315:00000013
#13318:000000000000000000000013
#1331a:00240000
#13415:00130000
#13418:00000013
#13412:2323
#1341b:0023
#13515:23130000
#13518:00002313
#1351b:23130000
#13512:00002313
#06812:13
#06818:0013
#06810:41
#06912:13
#06918:00130000
#06915:0013
#07012:13
#0701a:0024
#07014:000024
#07018:000000000024
#07116:003434343434140000000000
#07112:24
#07218:00130000
#0721b:000000000000000033003300330033133300330033003300
#07315:13
#07312:003333333300130000000000
#07418:003333333333133333333333
#0741b:13
#07415:003333333333133333333333
#07412:13
#0751b:13
#07512:13
#07612:0013
#0761f:11
#07715:0013
#07718:13
#0781b:13
#07815:0013
#08012:13
#0801b:0013
#08118:0013
#08115:13
#08212:13
#08218:0013
#07918:13
#08315:13
#08415:0013
#08412:23
#0841b:23
#0851b:13
#08512:13
#08518:0013
#0861b:13
#08615:0013
#08612:13
#08716:13
#0871b:13
#08719:00130000
#08717:0013
#08712:0013
#08714:00130000
#08815:0013
#08812:23
#0881b:23
#08912:13
#0891b:13
#08918:00130000
#08915:0013
#09012:1313
#0901b:1313
#09018:00130000
#09015:00000013
#09112:13
#0911b:13
#0951a:14
#09516:00140000
#09512:000014
#10312:1414
#10316:00140000
#00815:00130000
#00818:2313
#0081b:00000013
#00812:0013
#00915:1313
#00918:00130000
#00912:00000013
#0091b:0013
#01018:13000013
#0101b:0013
#01015:00130000
#01012:0013
#01115:13000013
#01118:00130000
#01112:0013
#0111b:0013
#1281b:2313
#12815:000000000000000013000013
#12818:00000013
#12812:23
#12912:00130000
#1291b:000000000000000000130013
#12918:13
#13112:00130000
#1311b:00130000
#13012:00130000
#1301b:00000013
#13018:0013
#13015:13
#01512:14
#0151a:14
#04612:1313
#04615:00130013
#0461b:2323
#04618:00230023
#04712:13
#0471b:23
#1191a:14
#11912:14
#01215:00130000
#01218:2313
#0121b:00000013
#01212:0013
#01315:1313
#01318:00130000
#01312:00000013
#0131b:0013
#01418:13000013
#0141b:0013
#01415:00130000
#01412:0013
#11618:00130000
#11615:2313
#11612:00000013
#1161b:0013
#11610:41
#11718:1313
#11715:00130000
#1171b:00000013
#11712:0013
#02412:2313
#02418:000000000000000013000013
#02415:00000013
#0241b:23
#02214:2424
#02218:00240024
#0301b:23
#03015:0023
#03018:00230000
#03012:00000023
#0311b:23
#03115:0023
#03112:00000023
#03118:00230000
#12618:2424
#12614:00240024
#13612:23
#1361b:23
#00715:23
#02812:23
#02818:00000023
#04412:23
#0441b:0023
#04515:23
#04518:0023
#11815:23000023
#11818:00230000
#1181b:0023
#11812:0023
#13212:00000024
#13217:24
#0015b:53
#00058:0053
#0005b:53
#00555:53
#00458:63
#00255:0063
#00252:63
#00352:63
#0065b:0063
#00658:63
#01755:00530000
#01952:00130000
#0195b:00130000
#01855:00530053
#01852:5353
#0275b:00130000
#02752:00130000
#02658:00630063
#0265b:6363
#02258:000000000000000000000014
#0205b:13
#02055:00000013
#0215b:00130000
#0325b:53
#03258:0000002300000000
#03352:63
#03355:0000002300000000
#03457:0053
#0345b:53
#0355b:53
#03558:00230000
#03652:0000002300000000
#03655:53
#0375b:0000002300000000
#03758:63
#03952:13
#03958:13
#0425b:63
#04258:000000000063000000000000
#04355:0053
#04352:00530000
#04852:53
#04856:0053
#04955:0053
#04952:00000023
#05055:53
#05256:14
#05255:00530053
#05252:0053
#05152:54
#05156:00540000
#0515a:000054
#05458:53
#0545b:00230000
#05452:53
#05455:00230000
#05558:00000023
#0555b:0053
#05555:0053
#05552:00000023
#05655:13
#0565b:13
#05755:53
#05752:0053
#0575b:0063
#05855:53
#05858:63
#06056:14
#06055:0063
#06052:00630063
#05956:00540000
#0595a:5454
#06155:6363
#0615b:0063
#06258:0053
#0625b:00530053
#06358:5353
#06352:0053
#0665b:0023
#06658:53
#06655:0023
#06652:53
#09358:0063
#0935b:00000023
#09458:63
#0925b:63
#09257:0063
#0965b:0063
#09658:00630063
#09656:14
#09855:63
#09852:00230000
#0985b:63
#09858:00230000
#09952:0063
#09955:00000023
#09958:0063
#0995b:00000023
#10158:63
#1015b:0063
#10152:0053
#10258:63
#10255:53
#10458:0053
#1045b:00530053
#10456:14
#10558:5353
#10552:0053
#10655:0063
#10652:00630063
#10755:6363
#1075b:0063
#11052:0023
#11055:63
#11058:0023
#1105b:63
#10058:13
#10052:13
#1215b:00530000
#1235b:00130000
#12352:00130000
#1225b:00530000
#12252:00000063
#12255:0063
#12258:53
#12654:000000000000000000000014
#12455:14
#1245a:00000014
#12552:00140000
#06852:53
#06858:0053
#06955:0063
#07052:53
#07156:0054
#07152:54
#07252:14
#0725b:0000000000230000
#07258:00530000
#07355:63
#07352:0053
#0755b:53
#07552:63
#0745b:53
#07458:0023
#07455:0023
#07452:63
#07655:13
#07658:13
#07958:63
#08355:53
#0955a:64
#09556:00640000
#09552:000054
#10352:6464
#10356:00640000
#13652:13
#1365b:13
#12952:00630000
#13152:00130000
#1315b:00130000
#13052:00630000
#1305b:00000053
#13058:0053
#13055:63
#00858:13
#01552:14
#0155a:14
#0165b:13
#01652:13
#02452:13
#0245b:13
#04752:13
#0475b:13
#11255:13
#1195a:14
#11952:14
#1205b:13
#12052:13
#1285b:13
#12852:13
#01258:13
#11655:13
#02558:00630000
#02852:13
#02858:00000013
#02952:00130000
#04452:13
#0445b:0013
#04555:13
#04558:0013
#13257:14
#13252:00000014
#1335a:00140000
#0003b0:13
#000380:0033
#0013b0:33
#001380:0023
#002320:13
#002350:0033
#003320:33
#003350:0023
#004380:13
#0043b0:0023
#005350:13
#005320:0023
#006380:13
#0063b0:0033
#007380:23
#017350:00130000
#017320:0023
#018320:1333
#018350:00330033
#019320:23
#019380:00000013
#019390:000000000033
#0193a0:000000000000000000000033
#0203b0:23
#020320:0013
#020330:000000000000003300000000
#020340:000033
#020350:00000023
#021380:13
#021390:003300000000000000000000
#0213a0:003300000000
#0213b0:00230000
#022380:000000000000000000140024
#025380:00130000
#0253b0:0023
#0263b0:1333
#026380:00330033
#0273b0:23
#027350:00000013
#027340:000000000033
#027330:000000000000000000000033
#028320:23
#0283b0:0013
#0283a0:000000000000003300000000
#028390:000033
#028380:00000023
#029350:13
#029340:003300000000000000000000
#029330:003300000000
#029320:00230000
#0323b0:13000023
#032380:0000005300000000
#033320:13000023
#033350:0000005300000000
#0343b0:13
#034370:0033
#0353b0:3323
#035380:00530000
#036350:13000023
#036320:0000005300000000
#037380:13000023
#0373b0:0000005300000000
#0423b0:13000023
#042380:000000000033000000000000
#043320:00130000
#043350:0033
#044320:23
#048320:130000000000000000000033
#048360:0033
#049320:23
#049350:0013
#049320:00000053
#050350:33
#050320:00230000
#051320:1424
#051360:00340000
#0513a0:000014
#052360:24
#052350:000000130000000033330000
#052320:000000000033330000000033
#053320:23
#054380:13003323
#0543b0:003333333333000000000000
#054321:13003323
#054351:003333333333000000000000
#0553b1:0013
#055381:00000053
#0563b1:23
#055350:0013
#055320:00000053
#056350:23
#057350:13
#057320:00230000
#057320:0013
#057350:00000053
#058350:33
#058320:00230000
#0573b1:0013
#057381:00000053
#058381:33
#0583b1:00230000
#0593a1:1434
#059361:00340000
#060361:24
#060321:000000130000000033330000
#060351:000000000033330000000033
#061351:33
#061321:00230000
#0613b1:0013
#061381:00000023
#061350:0013
#061320:00000023
#0623b0:000000130000000033330000
#062380:000000000033330000000033
#063380:33
#0633b0:00230000
#063320:0013
#063350:00000023
#063381:0013
#0633b1:00000023
#066381:13
#0663b1:0053
#067381:23
#066320:13
#066350:0053
#067320:23
#068320:13
#068350:0023
#068381:0013
#0693b1:23
#069351:0013
#069321:00000053
#070321:33
#070351:00230000
#071321:14
#071361:003434343434340000000000
#072321:24
#072381:00130000
#0723b1:000000000000000033003300330033533300330033003300
#073381:23
#073350:13000023
#073320:000033003300330033533300330000000000000000000000
#0743b0:13
#074380:003333333333333333333333
#0753b0:33
#076380:23
#074321:13
#074351:003333333333333333333333
#075321:33
#076351:23
#079381:13
#0793b1:0023
#083351:13
#083321:0023
#0923b1:130000000000000000000033
#092371:0033
#0933b1:23
#093381:0013
#0933b1:00000053
#094381:33
#0943b1:00230000
#0953a1:1424
#095361:00340000
#095321:000014
#096361:24
#096381:000000130000000033330000
#0963b1:000000000033330000000033
#0973b1:23
#098351:13003323
#098321:003333333333000000000000
#0983b0:13003323
#098380:003333333333000000000000
#099320:0013
#099350:00000053
#100320:23
#099381:0013
#0993b1:00000053
#100381:23
#101381:13
#1013b1:00230000
#1013b1:0013
#101381:00000053
#102381:33
#1023b1:00230000
#101320:0013
#101350:00000053
#102350:33
#102320:00230000
#103320:1434
#103360:00340000
#104360:24
#1043b0:000000130000000033330000
#104380:000000000033330000000033
#105380:33
#1053b0:00230000
#105320:0013
#105350:00000023
#105381:0013
#1053b1:00000023
#106321:000000130000000033330000
#106351:000000000033330000000033
#107351:33
#107321:00230000
#1073b1:0013
#107381:00000023
#107350:0013
#107320:00000023
#110350:13
#110320:0053
#111350:23
#1103b1:13
#110381:0053
#1113b1:23
#1213b1:00130000
#121381:0023
#122381:1323
#1223b1:00330000
#122350:0013
#122320:00000033
#123350:23
#123320:00000014
#123330:000000000034
#123340:000000000000000000000034
#124350:24
#124370:0014
#124380:000000000000003400000000
#124390:000034
#1243a0:00000024
#125350:14
#125340:003400000000000000000000
#125330:003400000000
#125320:00240000
#126340:000000000000000000140024
#129320:00130000
#129350:0023
#130350:1323
#130320:00330000
#130381:0013
#1303b1:00000033
#131381:23
#1313a1:00000014
#131391:000000000034
#131381:000000000000000000000034
#132371:24
#132351:0014
#132341:000000000000003400000000
#132331:000034
#132321:00000024
#133371:14
#133381:003400000000000000000000
#133391:003400000000
#1333a1:00240000
