This file was generated by Ched 2.7.0.0.
#TITLE ""
#ARTIST ""
#DESIGNER ""
#DIFFICULTY 0
#PLAYLEVEL
#SONGID ""
#WAVE ""
#WAVEOFFSET 0
#JACKET ""
#REQUEST "ticks_per_beat 480"
#00002: 4
#BPM01: 240
#00008: 01
#TIL00: ""
#VOLUME: ""
#HISPEED 00
#MEASUREHS 00
#00016:00120000
#00012:00000012
#0001a:1212
#0001c:00120000
#00018:00000012
#00116:00120000
#00112:00000012
#0011a:1212
#0011c:00120000
#00118:00000012
#0021c:00120000
#00218:00000012
#00212:0012
#00216:12
#00318:0012
#0031c:12
#00312:00120000
#00316:00000012
#00418:00120000
#0041c:00000012
#00414:1212
#00412:00120000
#00416:00000012
#00518:00120000
#0051c:00000012
#00514:1212
#00512:00120000
#00516:00000012
#00618:1214
#00612:00120012
#00616:0012
#00615:00000016
#0061b:00130000
#00718:000012000012000000000000
#00716:000000120000000000000012
#00712:2612
#00714:000012
#0071a:000000000000001200000000
#0071c:00000012
#0081b:00130013
#00816:00001414
#00812:000000130000130000000013
#00818:26
#0091b:13130013
#00912:13000013
#00916:00131400
#01012:130000000000170000130013
#01016:00130000
#01017:13
#0101b:0013
#01116:00131812
#01118:000000000000000012000012
#01112:1313
#01117:13
#0141a:140014
#01412:24000028000000000000001c
#01416:000014000000000000280000
#01418:000000000014000000000000
#01414:0028
#01512:1c120000
#01516:00120012
#01514:0012
#01518:0012
#0151a:00000012
#01212:26130013
#01216:00001414
#0121b:000000130000130000000013
#01316:00001413
#0131b:13000013
#01312:13131300
#0161b:0013
#01616:000000000000130000000013
#01612:2c130013
#01617:000000130000000013000000
#01610:41
#0171b:130000000000130000000013
#01717:001300000000
#01712:00130017
#01816:1414
#01817:001300001300
#0181b:000000000013000000000000
#01812:00140014
#0191b:13
#01912:0000000000001c0000140014
#01916:140000000014
#02012:1c00001c
#0201a:000000141400
#02016:000000000000001400000000
#02112:1400141c0000140000000000
#0211a:0014
#02115:000000000000000000130013
#02118:000000000013
#02116:001400000000000000000000
#02216:000000000018280000000000
#02212:24000024000000001828002c
#0231c:00120000
#02318:00120012
#0231a:0012
#02316:0012
#02314:00000012
#02912:1316132c0000000000140000
#0291a:000000000000000000000014
#0301a:14
#03018:00140000
#03016:0014
#03014:00000014
#03012:28262422
#03112:18161412
#0311a:24
#03118:00240000
#03116:0024
#03114:00000024
#03412:14000013
#03416:000000140000000000001414
#0341c:00120000
#0341a:0014
#03512:1300131c
#0351b:13130000
#03516:000000001414000000000000
#0381a:141400001400
#03816:001400001400181400001400
#03812:000000140014000000180014
#03912:1c
#03712:14
#0371a:00140000
#03716:000000000014140000140000
#06516:180014000014180014000014
#06512:001400180000001400180000
#0651a:000014000014
#03216:0014
#03212:14
#03218:16
#0321a:00120012
#0321c:0012
#03210:41
#0331a:0014
#03316:1412
#03314:00120012
#04017:00130000
#0401b:0013
#04012:24
#0401a:24
#04117:13130000
#04116:00001313
#04216:000000000013000000000000000013000000000000000000
#04212:130000000013000000000000
#04217:000000000013000000000000
#0421b:000000000000001300000000
#04312:1c0000000000001300000000
#0431b:00130000
#04316:000000130000140000000013
#0431a:000000000014
#04314:00000013
#04318:000014
#0441b:00130000
#04416:28140014
#04412:00002813
#0451b:00130000
#04516:28140014
#04512:00002813
#04612:16261626
#04618:26162616
#04817:000013000000000000130000
#04812:240000130000000013000000
#0481b:0013
#0481a:24
#04810:41
#04916:14141414
#04912:001300001300
#0491b:000000000013000000000013
#0501a:00140000
#05016:14
#05012:000000140000000000000000150000001600000017000000
#05017:0027
#05018:000026
#05019:000000000025
#05112:18181814
#05118:000012000012000012000000
#0511a:240000000014
#05116:000000000000000000000014
#05212:1c0000130013000015000017
#0521b:00130000
#05217:0017
#05219:00000015
#0531b:1313
#05312:00130000
#05317:0013
#05316:00000013
#05416:141400141400000000000000
#05412:001400160000
#0541a:000000000014000000000000
#05418:0000000000160000
#05512:000000160000000000000000000014000000000000000000
#05518:16
#0551a:000000140014
#05516:000000000000000014140014
#05616:000000130014140000130014
#0561a:00140000
#05612:2623
#05618:26
#05716:140000130014140000130014
#05712:2323
#05912:000000130000000013000000
#0591b:13
#05917:000000130013
#0591a:000000240014
#05915:000000000000000014130000
#05918:00000014
#05916:24
#05812:280000380000000000000000130000000000000013000000
#0581b:000013
#0581a:14
#05816:000000242424
#06016:000000000013180000000000
#06019:000013
#06012:000000140000000000000013
#06014:00000018
#0601a:00140000
#06112:18000018
#06116:00180000
#06114:0018
#06217:000000000013000000000000
#06214:000000000000000013180000
#0621b:000000000000000000000013
#06212:2c141800
#0621a:00140000
#06316:18000018
#06312:00180000
#06314:0018
#06418:0016
#06412:28
#0641a:24
#06612:1c
#06712:19
#06816:14001313
#0681b:1313
#06812:000000130000000013000000
#06810:41
#06912:1313
#0691b:000000130000000013000000
#06917:00001313
#07016:140000130000000000002400
#0701a:000000140000000000001400
#07018:000014
#07014:000024
#07012:0024
#07116:001400000000
#07114:001400
#0711c:001200000000000000000000
#0711a:00120000
#07118:240000000012000000000000
#07117:0000000000140000
#07112:0024
#07218:000000160013001300000000
#07215:000000001300000000161300
#07212:240000161300
#0721b:000000000000000000000013
#0721a:24
#07312:160013000000190000140000
#07318:001300160013000000000000
#07315:001300
#07316:00000014
#0741a:141414001414
#07412:0014001c00141c14001c0014
#07512:2616
#07518:16
#07612:16
#07618:0012
#0761f:11
#07916:12
#07914:0012
#0791c:12
#07818:12
#07812:12
#07814:0012
#08216:12
#0821c:12
#0821a:0012
#08418:260000000012000000000012
#0841a:0014
#08412:0012
#08416:12
#10912:1800001c14001c00001c1400
#10916:000014000014000014000014
#1091a:001400000000001400000000
#09216:000013000000000000130000
#0921b:000000130000000013000000
#09212:2c23
#0921f:21
#09316:24142414
#0931b:001300001300
#09312:000000000013000000000013
#09412:000000140000270026002500
#09416:14
#0941a:0014000000000000
#09419:0015
#09418:000016
#09417:000000000017
#09410:41
#0951a:00000014
#09512:240000000014
#09516:180012180012180012000014
#09612:1c131715
#0961b:000000130013000000000000
#09619:000015
#09617:000000000000000000000017
#09712:1313
#0971b:00130000
#09716:0013
#09717:00000013
#09816:141400141400000000000000
#0981a:001400000000
#09812:000000000000000000001400000000160000000000000000
#09818:0016
#09918:0016000000000000
#09912:160000140014
#0991a:000000000000001400000000
#09916:000000000000000014140014
#10312:130000240014
#1031b:000000130000000013000000
#10316:240000130013
#10318:00000013
#10317:000014
#10314:00000014
#1021b:000000130013
#10212:140013
#10216:280000380000000000000000240000002400000024000000
#10417:000000000013000000000000
#10414:000000000000000013180000
#1041b:000000000000000000000013
#10412:00141800
#1041a:00140000
#10512:1c
#10514:001a0000
#10516:0018
#10518:00000016
#10616:000000000013180000000000
#10619:000013
#10612:2c0000140000000000000013
#10614:00000018
#1061a:00140000
#10712:1c1a1816
#10812:2416
#10816:28
#11012:1c
#11115:19
#11116:00140012
#1111a:001400
#11112:000000000014000000000000
#1121b:13
#11212:26130013
#11216:000000000000140000140014
#11217:00130000
#11312:13130013
#1131b:13000013
#11316:000000000000140000000013
#11317:00130000
#1141b:13000013
#11417:00131700
#11416:130000000000000000000013
#11412:0013
#11512:000000181200
#11518:00000012
#11516:130000000000000000000012
#1151b:1313
#11517:00130000
#11812:14000000000000001428001c
#11816:000014280000000000000000
#11814:000000000014280000000000
#1181a:24
#1191c:00120000
#11918:00120012
#1191a:0012
#11916:0012
#11914:00000012
#11912:1c
#11612:1318
#1161b:00131313
#11616:000000000000000000140014
#11618:26
#11610:41
#1171b:13131313
#11712:13001813
#11716:000000000000000000000014
#12012:2c13
#12017:000000000000130000000013
#1201b:00130000
#12016:000000130000000013180000
#12112:180000000000130000130013
#12116:001300000000
#1211b:00130000
#12117:00000017
#12212:170000000013170000000000
#12216:000013180000000013000000
#1221b:00000013
#12312:141c
#12317:13
#1231b:000000000000000000130013
#12318:000000000013
#1241b:0013
#12418:000000000000001300000000
#12415:000019
#12412:1c00001c
#1251b:13
#12518:001600000000000000130013
#12515:001900000013
#1251a:0014
#12512:001c1400
#12612:00000000001828000000002c
#12616:000000000000000018280000
#1261a:24240000
#12712:00120000
#12716:00120012
#12714:0012
#12718:0012
#1271a:00000012
#1281b:0013
#12816:000000000000130000000013
#12812:2c130018
#12817:000000130000000013000000
#12916:18
#12917:001300000000
#1291b:000000000000130000130013
#12912:00130017
#13017:171300171300
#1301b:000000000013000000000000
#13012:00180013
#13112:0000000000001c0000130013
#1311a:14
#13116:13
#13115:000000000013
#09112:0012
#09118:26
#09018:000000000000000000000012
#0901a:000012
#09014:000000000012260000000000
#09016:120012000000000000260000
#09012:00260000
#08512:0014
#08516:000000120000000000000012
#0851c:0012
#08518:12
#0861a:0014
#08618:000000120000000000000012
#08612:0012
#08616:12
#08718:1214
#0871a:00140000
#08712:00140000
#08716:000000000012000000140000
#08714:000012
#08812:24001612
#0881c:00120000
#08818:000000000012000000120000
#08816:000000120000000000000012
#0881a:24
#08918:160012
#0891c:001200000000
#08916:00160000
#08912:000000000012000000160012
#08914:0016
#0361a:14
#03612:18140000
#03616:000000000014140000140000
#0771a:12
#07716:0012
#07714:12
#08318:1212
#0831c:00120000
#08016:0012
#08012:12
#08114:12
#08118:0012
#0811a:12
#02412:2c13
#02417:000000000000130000000013
#0241b:00130000
#02416:000000130000000013180000
#02512:180000000000130000000013
#02516:001300000000
#0251b:00130000
#02517:00000017
#02616:141300141300
#02612:000000000013000000000000
#0261a:00140014
#02712:1300000000001c0000131613
#02716:14
#0281b:000000131300
#02818:000000000000001600000000
#02812:2c00002c
#13212:2c00000000001300192c0000
#13215:000000000000001300000000
#13312:1316192c0000000000000014
#1331a:00000014
#10017:00130013
#10016:000000000014140000000014
#10012:26140000
#10018:26
#1001b:0023
#10116:140000000014140000000014
#10117:00130013
#1011b:2323
#13412:14
#13414:00140000
#13416:2814
#13418:00260014
#1341a:0024
#1341c:00000022
#13518:00160024
#1351a:0014
#13516:1824
#1351c:00000012
#13512:24
#13514:00240000
#04712:2c
#13612:2c
#00252:0062
#00256:62
#00358:0062
#0035c:62
#00658:5254
#00655:00000026
#0065b:00230000
#0005a:5252
#00058:00000022
#0005c:00220000
#0015a:5252
#0015c:00220000
#00158:00000022
#00454:6262
#00452:00220000
#00456:00000022
#00554:6262
#00552:00220000
#00556:00000022
#00858:16
#00856:0014
#01652:1c
#01656:0053
#01057:53
#01052:0017
#0105b:0063
#01157:53
#01156:0018
#01256:0014
#01252:16
#0135b:63
#01356:0014
#01752:00530000
#01852:00000054
#00952:53
#00956:00531400
#02152:001c0000
#02052:1c00001c
#02252:00000000000000000000001c
#03552:5313
#03952:1c
#03752:54
#03756:000000000024640000540000
#0195b:53
#01956:54
#01957:00130000
#01952:00140000
#03452:64
#03456:00240000
#0345a:0054
#03256:0024
#03252:64
#03258:16
#0335a:0024
#03356:64
#04156:0053
#04157:53
#04252:630000000063000000330000
#04257:000000000063000000330000
#04256:000000000023000000000000000023000000000000000000
#0425b:000000000000002300000000
#04356:00630000
#04456:18
#04452:0018
#04556:18
#04552:0018
#04658:4646
#04652:00360036
#04752:1c
#01552:1c
#04852:14530000
#0485a:14
#04857:00000053
#05056:54440000
#0505a:00440000
#05052:0024000000000000
#05252:4c
#0525b:00530000
#05152:58585800
#0535b:5353
#05352:00630000
#05357:0053
#05356:00000063
#05452:00005636
#05458:0000000000260000
#05552:0026000000000000
#05558:66460000
#05652:3613
#05658:46
#05656:0054
#05756:5454
#05752:1313
#05852:38480000
#0585a:64
#05952:000000530000000023000000
#0595b:53
#05957:000000530023
#0595a:000000540024
#05955:000000000000000024530000
#05958:00000054
#06152:48000038
#06156:00380000
#06154:0048
#06356:38000048
#06352:00480000
#06354:0038
#06252:1c
#06452:58
#06458:0026
#06752:39
#06652:5c
#06856:14000053
#0685b:53
#06952:63
#06957:00000063
#07056:54
#0705a:00240000
#07152:00005434
#07157:0000000000240000
#07352:00005924
#07552:1626
#07558:56
#07658:16
#07652:16
#07858:52
#08256:62
#0925b:00630000
#09256:00000063
#09252:4c
#09452:00340000
#09456:64340000
#0945a:0024000000000000
#09652:3c630000
#09752:6363
#0975b:00530000
#09756:0063
#09757:00000053
#09852:0000000000260000
#09858:00006646
#09958:0026000000000000
#09952:56360000
#10352:630000640024
#1035b:000000630000000023000000
#10356:000000630023
#10358:00000063
#10357:000024
#10354:00000064
#10552:3c
#10554:004a0000
#10556:0038
#10558:00000046
#10752:4c3a4836
#10852:0026
#10856:68
#11052:6c
#11155:49
#10652:1c
#1125b:63
#11256:0014
#11257:00630000
#11252:16
#11552:0018
#11556:63
#11456:63
#11457:0017
#11452:0053
#11652:5318
#11658:16
#11752:5318
#11952:1c
#12057:0063
#12052:1c
#1215b:00630000
#1225b:00000063
#12352:64
#12357:63
#1235b:00330000
#12356:00340000
#1135b:63
#11356:0014
#11357:00630000
#12856:0053
#12852:1c
#12952:00530000
#13052:00000053
#1315a:54
#13156:53440000
#13152:00430000
#12652:00000000000000000000001c
#13652:3c
#09152:0022
#08558:62
#0855c:0022
#08452:0022
#08456:52
#08652:0022
#08656:52
#0365a:64
#03656:000000000024540000640000
#03652:38
#06052:33
#06055:34
#0795c:22
#09556:68686800
#1045b:43
#10457:44
#02457:0063
#02452:1c
#0255b:00630000
#0265a:00000064
#02752:63
#02756:64130000
#0275a:00140000
#13352:001c0000
#13252:1c00001c
#10056:0064
#10058:46
#10052:36
#1005b:0013
#10156:6464
#1015b:1313
#10252:54
#10256:48380000
#02852:1c00001c
#02952:001c0000
#0725a:14
#07252:14
#12452:1c00001c
#12552:001c0000
#0003a0:1232
#0003c0:00520000
#000380:00000052
#0013a0:3232
#0013c0:00520000
#001380:00000052
#0023a0:22
#002361:12
#002321:0032
#003361:22
#0033c0:12
#003380:0032
#0043c0:22
#004341:1232
#004321:00520000
#004361:00000052
#005341:3232
#005321:00520000
#005361:00000052
#006341:22
#006380:1234
#0063b0:00530000
#006350:00000056
#007380:26
#009320:1323
#009360:00330000
#010370:13
#0103b0:00230000
#0103b0:0013
#010370:00000023
#011370:13
#0113b0:00230000
#0133b0:13
#013360:00230000
#016360:0013
#016320:000023
#017320:00130000
#017360:0023
#018320:00000014
#019360:34
#019320:00240000
#0193b1:13
#019371:00230000
#0223a1:14
#022361:005400240000000000000000
#024371:0013
#0243b1:000023
#0253b1:00130000
#025371:0023
#0263a1:00000014
#027361:34
#0273a1:00240000
#027320:13
#027360:00230000
#032320:14
#032360:0054
#033320:24
#033361:14
#0333a1:0054
#034361:24
#034320:1424
#034360:00540000
#0343a1:0014
#034361:00000024
#035321:13
#035361:00240000
#0363a1:1424
#036361:005400000054000000000000
#036360:0014
#036320:000000000000005400240000
#036361:00000014
#0363a1:000000000054
#0373a1:24
#037320:1424
#037360:005400000054000000000000
#037361:0014
#0373a1:000000000000005400240000
#037360:00000014
#037320:000000000054
#038320:24
#040320:00130023
#040370:0033
#040371:00000013
#0413b1:23
#041370:13
#041320:00532300
#041361:0013
#0413b1:00000053
#0423b1:23
#042320:130000000033000000230000
#042360:000000000053000000000000000053000000000000000000
#042371:000000000013000000230000
#0423b1:000000000000005300000000
#043361:00130000
#043321:0023
#048321:00130000
#048361:0023
#048371:00000013
#0493b1:23
#050361:14240000
#050321:0054000000000000
#051321:182200000000
#051321:000000180022000000000000
#051321:000000182200
#0523b1:00130000
#052371:000000000023000000000000
#0533b1:13
#053361:00230000
#053320:00130023
#053370:0033
#0533b1:0013
#053361:00000033
#0543b1:23
#054321:00001626
#054381:0000000000560000
#055381:16260000
#055321:0056000000000000
#056361:0014
#0563a1:000000000000000054240000
#057361:14
#0573a1:000054240000000000000000
#057361:0014
#0573a1:000000000000000054240000
#0583a1:14
#058321:0058280000000000
#0593b1:13
#059361:00230000
#059320:000000130000000053000000
#059370:000000330053
#059350:00000053
#060320:23
#0593a1:000000140054
#059351:000054
#059381:00000054
#060351:24
#064321:18
#064381:0056
#065321:24
#066321:1c
#0673b1:23
#0683b1:13
#068361:00230000
#068361:00000013
#0693b1:23
#069320:13
#069370:00230000
#069370:00000013
#070320:23
#070361:1424
#0703a1:00540000
#071321:00001424
#071371:0000000000540000
#073321:00001954
#074321:28
#075381:16
#075321:0056
#076381:26
#078381:12
#0793c1:52
#080381:22
#082361:12
#083321:3222
#083361:00320000
#084361:12
#084321:0052
#085361:22
#085380:12
#0853c0:0052
#086380:22
#086361:12
#086321:0052
#087361:22
#091321:0012
#092321:2c
#0923b1:00130000
#092371:0023
#092361:00000013
#093321:23
#094361:14240000
#0943a1:0054000000000000
#095361:18
#0953c1:002200000000
#095361:00180000
#0953c1:000000000022000000000000
#095361:0018
#0953c1:000022
#096321:00130000
#096361:000000000023000000000000
#097321:13
#097371:00230000
#0973b0:00130023
#097360:0033
#097321:0013
#097371:00000033
#098321:23
#098381:00001626
#098321:0000000000560000
#099321:16260000
#099381:0056000000000000
#100361:0014
#100321:000000000000000054240000
#101361:14
#101321:000054240000000000000000
#101361:0014
#101321:000000000000000054240000
#102321:14
#102361:0058280000000000
#103321:13
#103371:00230000
#1033b0:000000130000000053000000
#103360:000000330053
#103380:00000053
#1043b0:23
#103321:000000140054
#103371:000054
#103341:00000054
#104371:24
#108361:18
#108321:0056
#1093a1:24
#110321:1c
#111321:23
#111381:00001222
#1123b1:1323
#112371:00330000
#1133b1:1323
#113371:00330000
#114361:13
#114321:00230000
#114321:0013
#114361:00000023
#115361:13
#115321:00230000
#116321:13
#116371:00230000
#117321:13
#117371:00230000
#120371:0013
#1203b1:000023
#1213b1:00130000
#121371:0023
#1223b1:00000013
#123371:33
#1233b1:00230000
#123320:14
#123360:00240000
#126320:14
#126360:005400240000000000000000
#128360:0013
#128320:000023
#129320:00130000
#129360:0023
#130320:00000013
#131360:33
#131320:00230000
#1313a1:14
#131361:00240000
