This file was generated by Ched 2.7.0.0.
#TITLE ""
#ARTIST ""
#DESIGNER ""
#DIFFICULTY 0
#PLAYLEVEL
#SONGID ""
#WAVE ""
#WAVEOFFSET 0
#JACKET ""
#REQUEST "ticks_per_beat 480"
#00002: 4
#BPM01: 240
#00008: 01
#TIL00: ""
#VOLUME: ""
#HISPEED 00
#MEASUREHS 00
#0081a:14
#00814:0014
#0091a:14
#00914:0014
#01018:14
#01012:0014
#01118:14
#01112:0014
#0121a:14
#01214:0014
#0131a:14
#01314:0014
#01418:14
#01412:0014
#01518:14
#01612:14
#0161a:0014
#01610:41
#0181a:14
#01812:0014
#0241a:14
#02412:0014
#02612:14
#0261a:0014
#0301a:14
#03018:0014
#03116:14
#03114:0014
#03412:14
#03518:14
#03514:0014
#03212:14
#03210:41
#03314:14
#0361a:14
#03718:14
#03812:0014
#0391a:14
#04012:14
#0421a:14
#04614:1414
#04618:00140014
#04812:0014
#0481a:24
#04810:41
#04918:1414
#04914:00140000
#05118:1414
#05114:00140000
#05412:1414
#05418:00140014
#05512:14
#05515:00340000
#05612:0014
#0561a:24
#05718:1414
#05714:00140014
#05912:1414
#05918:00140000
#06114:14
#06112:0014
#06118:00140000
#06312:14
#06314:0014
#06318:00140000
#06419:15
#06516:15
#06519:00353535
#06619:15
#06812:14
#06818:0014
#06810:41
#06914:14
#0691a:0014
#07014:14
#07018:0014
#0721a:14
#07214:0014
#07318:14
#07312:0014
#0741a:1414
#07414:00140014
#0751a:14
#0771a:14
#07712:14
#08018:14
#08112:14
#0811a:14
#08412:1414
#0851a:1414
#08614:1414
#08718:1414
#1121a:14
#11214:0014
#1131a:14
#11314:0014
#11418:14
#11412:0014
#11518:14
#11512:0014
#1161a:14
#11614:0014
#11610:41
#1171a:14
#11714:0014
#11818:14
#11812:0014
#11918:14
#12012:14
#1201a:0014
#1221a:14
#12212:0014
#1281a:14
#12812:0014
#13012:14
#1301a:0014
#13218:16
#13212:0016
#1341a:14
#13418:0014
#13414:00140000
#13412:00000014
#1351a:14
#13518:0014
#13512:00000014
#13514:00140000
#02012:16
#02015:0016
#0921a:0014
#09212:24
#0921f:21
#09314:1414
#09318:00140000
#09514:1414
#09518:00140000
#0981a:1414
#09814:00140014
#0991a:14
#09917:00340000
#1001a:0014
#10012:24
#10114:1414
#10118:00140014
#1031a:1414
#10314:00140000
#10518:14
#1051a:0014
#10514:00140000
#1071a:14
#10718:0014
#10714:00140000
#10812:15
#10915:15
#10912:00353535
#11012:15
#13318:16
#13312:00160000
#12412:16
#12418:0016
#12512:16
#12518:00160000
#02818:16
#02815:0016
#0761f:11
#04412:26
#04418:0026
#04512:26
#04518:0026
#1361a:24
#02214:00340000
#12614:00340000
#09410:41
#02254:000000000000000000000014
#01652:14
#0085a:14
#0245a:14
#03252:54
#03354:54
#03452:54
#0365a:64
#03758:64
#04052:54
#0425a:64
#04754:0014
#05555:0014
#05552:54
#06459:65
#06556:65
#06659:65
#06852:14
#0725a:14
#0755a:64
#1125a:14
#12052:14
#1285a:14
#12654:000000000000000000000014
#0125a:14
#0485a:14
#0565a:14
#0995a:64
#09957:0014
#10852:55
#10955:55
#11052:55
#09252:14
#10052:14
#1165a:14
#13352:00160000
#12558:00160000
#02158:00160000
#02952:00160000
#0003a0:14
#001380:24
#002320:14
#003340:24
#004380:14
#0053a0:24
#006340:14
#007320:24
#017340:1424
#019380:1424
#021380:163636260000000000000000
#022320:14
#022340:000000340000340000340024
#025380:1424
#027340:1424
#029320:163636260000000000000000
#032320:14
#032340:00000054
#033340:34
#033320:00000054
#034320:34
#034340:0024
#0363a0:14
#036380:00000034
#037380:34
#0373a0:00000034
#0383a0:24
#040320:14
#041350:24
#0423a0:14
#043370:24
#047340:1424
#050320:1424
#052340:14
#052320:0024
#053380:14
#0533a0:0024
#055320:14
#055350:00342400
#0583a0:1424
#0603a0:14
#060380:0024
#062380:14
#0623a0:0024
#064390:15
#065360:35
#065390:00353535
#066390:35
#067360:25
#071320:1424
#0753a0:14
#076370:24
#078340:14
#079320:24
#082380:14
#0833a0:24
#088320:14
#088340:0034
#089320:3424
#0903a0:14
#090380:0034
#0913a0:3424
#0943a0:1424
#096380:14
#0963a0:0024
#097340:14
#097320:0024
#0993a0:14
#099370:00342400
#102320:1424
#104320:14
#104340:0024
#106340:14
#106320:0024
#108320:15
#109350:35
#109320:00353535
#110320:35
#111350:25
#121340:1424
#123380:1424
#126320:14
#126340:000000340000340000340024
#129380:1424
#131340:1424
