This file was generated by Ched 2.7.0.0.
#TITLE ""
#ARTIST ""
#DESIGNER ""
#DIFFICULTY 0
#PLAYLEVEL
#SONGID ""
#WAVE ""
#WAVEOFFSET 0
#JACKET ""
#REQUEST "ticks_per_beat 480"
#00002: 4
#BPM01: 176
#00008: 01
#TIL00: ""
#VOLUME: ""
#HISPEED 00
#MEASUREHS 00
#0191a:14
#01910:41
#02014:14
#02118:14
#02212:14
#0231a:14
#02414:14
#02518:14
#02612:14
#0271a:14
#02710:41
#0281a:14
#02914:14
#03014:14
#03118:14
#03218:14
#03312:14
#03412:14
#0431a:14
#0431f:11
#04412:14
#04518:14
#04614:14
#0471a:14
#04812:14
#04918:14
#05014:14
#0511a:14
#05312:14
#05412:14
#0521a:14
#05518:14
#05614:14
#05918:0016
#05912:26
#05910:41
#06012:16
#06018:0016
#06318:16
#06312:0016
#06418:16
#06412:0016
#06712:1616
#06818:1616
#07118:1616
#07110:41
#07212:1616
#07512:16
#07518:0016
#07612:16
#07618:0016
#08019:14
#08113:14
#08319:14
#08310:41
#08413:14
#08519:14
#0581f:21
#08713:0000000000000034000034000000000000000000000000000000000000000000
#03510:41
#0013a0:14
#0023a0:34
#0033a0:34
#0043a0:24
#005320:14
#006320:34
#007320:34
#008320:24
#009380:14
#010380:34
#011380:34
#012380:24
#013340:14
#014340:34
#015340:34
#016340:34
#018320:0026
#0353a0:14
#036390:34
#037380:34
#038380:24
#039320:14
#040330:34
#041340:34
#042340:24
#057380:14
#058380:24
#061320:1636
#062320:3626
#065380:1636
#066380:3626
#069320:1636
#070320:3626
#073380:1636
#074380:3626
#077320:16
#079330:24
#086330:14
#087330:0000000034000034000034000000000000000000000000000000000000000000
#090320:0024
