This file was generated by Ched 2.7.0.0.
#TITLE ""
#ARTIST ""
#DESIGNER ""
#DIFFICULTY 0
#PLAYLEVEL
#SONGID ""
#WAVE ""
#WAVEOFFSET 0
#JACKET ""
#REQUEST "ticks_per_beat 480"
#00002: 4
#BPM01: 176
#00008: 01
#TIL00: ""
#VOLUME: ""
#HISPEED 00
#MEASUREHS 00
#01316:12
#01318:0000001200000000
#0131a:0000000012000012
#01418:12
#0141c:0000000000000032
#01412:0000000000000032
#01512:12
#0151c:12
#01518:0000003232000032
#01516:0000003232000032
#01618:32120000
#01616:32120000
#01712:16
#01718:16000000000000000000000000000000000000000000000000000000000000121300001213000012130000121300001213000000000012001300000000001200
#01716:00000000000000000000000000000000000000000000000000000000000000120000001200000012000000120000001200000000000012000000000000001200
#01715:00000000000000001313131313001300
#01818:1300001214000012150000121600001200000000000000000000000000000000
#01816:0000001200000012000000120000001200000000000000000000000000000000
#01814:0014000000000000
#01813:00150000
#01812:0000001600000000
#01815:13
#01914:0000001300000000
#01912:23000013
#0191b:13
#01917:0013
#01910:41
#02016:13
#02012:0013
#02114:0000001300000000
#02112:00000013
#0211b:13
#02117:0013
#02216:13
#02217:0013
#02319:0000001300000000
#0231b:23000013
#02312:13
#02316:0013
#02417:13
#0241b:0013
#02416:0013
#02414:00000013
#02519:0000001300000000
#0251b:00000013
#02512:13
#02516:0013
#02617:13
#02714:1212
#02718:0012000000120000
#02716:00120012
#0271a:0000001200000012
#02710:41
#02814:12
#02812:00120000
#02818:00120000
#0281c:0012
#0291a:1212
#02916:0012000000120000
#02918:00120012
#02914:0000001200000012
#0301a:12
#0301c:00120000
#03016:00120000
#03012:0012
#03114:1200000000120012
#03118:0012000000000000
#03116:00120000
#0311a:00000012
#03219:12
#03217:0012000000000000
#03215:00120000
#03218:0000001200000000
#03216:0012
#03415:12
#03417:0012000000000000
#03419:00120000
#03416:0000001200000000
#03418:0012
#0331a:1200120000000012
#03314:0000001200120000
#03516:12
#0351c:12
#0351b:00120000
#0351a:0012
#03519:00000012
#03510:41
#03612:12
#03616:0012
#03618:12
#0361a:00120000
#0361c:0012
#03718:12
#03713:00120000
#03714:0012
#03715:00000012
#0381c:12
#03818:0012
#03816:1200000000000012
#03814:00120000
#03812:0012
#03916:1200000000000012
#03913:00120000
#03918:0000001212000000
#0391b:00000012
#04016:1200000000000012
#04018:12
#04118:1200000000000012
#0411b:00120000
#04116:0000001212000000
#04113:00000012
#04114:12
#04218:1200000000130000
#04212:00231300
#04215:00000013
#0421b:0013
#04312:13131313
#04317:0033333300001300
#0431b:1300000000000033
#0431f:11
#04412:13131300
#04415:00000013
#04418:0000000000130013
#0441b:3333000000000000
#0451b:13131313
#04516:0033333300001300
#04512:1300000000000033
#0461b:13131300
#04615:0000000000130013
#04618:00000013
#04612:3333000000000000
#0471b:1313
#04712:1300001300000013
#04715:0013000000130000
#04718:00130013
#04812:0000000000130013
#0481b:13130000
#04815:0013001300000000
#04818:00001313
#0491b:0013000000130000
#04915:0000130000000013
#04912:0000001300000000
#04918:0000000000000013
#05015:0000000000130000
#05018:00000013
#05012:0000000000000013
#05115:0013001300000000
#05112:0000000000130013
#05118:00002313
#0511b:23130000
#05215:0013000000001300
#05218:0000130000130000
#0521b:2300000000000013
#05212:0023
#05318:0013001300000000
#0531b:0000000000130013
#05315:00002313
#05312:23130000
#05418:0013000000000013
#05415:00130013
#05412:23
#0541b:0023
#05515:0000130000000013
#05518:00000013
#05512:2323
#05618:0000130000130000
#05615:0013001300000000
#05612:2323
#0561b:2323
#05614:00000024
#05912:28140000
#0591a:24
#05910:41
#0601a:00140000
#06019:0000000000000013
#06016:28
#05715:00000000000000000000000000001232
#0611b:13
#06118:0000001300000000
#06117:0000000000000013
#0611a:0024
#06115:2424
#06219:15
#06212:00140014
#0621a:0000000024140000
#06215:24
#06216:0000000000000024
#06314:0014001400240014
#06318:00140014
#0631a:1424
#06312:1424
#0641a:14
#06412:14000014
#06414:0024000000000000
#06415:0024
#06518:0014001400240000
#06514:00140014
#0651a:0000000024000014
#06512:1424
#06616:1428
#06614:00000014
#0671a:00140000
#06716:28
#06712:24
#06812:28140000
#06814:0000000000000013
#06912:1324
#06915:0000001300000000
#06916:0000000000000013
#06917:2424
#07012:15002414
#0701a:00140014
#07015:0000000000140000
#07017:2400000000000024
#07117:00140000
#07115:1400001400240014
#07119:00000014
#0711a:1424
#07112:0024
#07110:41
#07212:1424
#0721a:1424
#07213:00140000
#07217:0024001400000000
#07215:0000000000000014
#0731a:14002414
#07315:0014001400000000
#07319:00140000
#07312:1400000024240000
#07412:1414
#0741a:00140014
#07416:00000014
#07417:1424
#07415:00140000
#0751a:1424
#07516:00140000
#07515:0014
#07517:00000014
#07514:24
#07617:14
#07612:2426
#07614:000026
#07616:000000000026
#07716:0000000000000012
#07718:26
#07816:12
#07814:0000121200000000
#07812:0000000000120000
#00118:12121200
#00116:0012001200000000
#0011b:0000000000323232
#00318:12121200
#00316:0000001200000000
#0031b:0000000000323232
#00516:12121200
#00518:0012001200000000
#00513:0000000000323232
#00618:1212
#00616:0012000022000000
#00919:1212
#00916:0012000000120000
#00918:00120012
#00915:0000001200000012
#01218:2235153500000012
#01213:0035153500000000
#01216:22
#0101b:00120000
#01013:00120000
#01018:22
#01016:22
#01119:1212
#01116:0012000000120000
#01118:00120012
#01115:0000001200000012
#00416:00120000
#00413:2232003200000000
#00817:0000123200000000
#00819:2212
#00815:1212
#00813:00120000
#00818:0032000000000000
#0581a:1414
#05816:00150000
#05814:00000016
#05812:0028
#0581f:21
#00213:0012000000000000
#00214:22120000
#00215:0000001200000000
#00715:1212
#00713:00120000
#00717:00120012
#00719:1212
#0071b:00000012
#00718:0012000000000000
#0071a:0000000000000012
#08719:0000000000000032000032000000000000000000000000000000000000000000
#08310:41
#01552:62
#0155c:62
#01458:62
#01356:62
#01656:00220000
#01658:00220000
#01752:56
#01758:56000000000000000000000000000000000000000000000000000000000000225300002253000022530000225300002253000000000022005300000000002200
#01756:00000000000000000000000000000000000000000000000000000000000000220000002200000022000000220000002200000000000022000000000000002200
#01755:00000000000000006363636363006300
#01858:5300002254000022550000225600002200000000000000000000000000000000
#01856:0000002200000022000000220000002200000000000000000000000000000000
#01854:0064000000000000
#01853:00650000
#01852:0000006600000000
#01855:63
#01952:13
#0195b:53
#01957:0023
#02056:53
#02052:0023
#0205b:13
#02156:13
#0215b:53
#02157:0023
#02256:53
#0225b:13
#02257:0063
#02352:63
#02356:0023
#0235b:13
#02457:63
#0245b:0023
#02452:13
#02552:63
#02556:0023
#02557:13
#02657:63
#02652:13
#02854:52
#02852:00220000
#0305a:62
#0305c:00220000
#03256:0052
#03458:0052
#03556:62
#03652:62
#03656:0022
#0365c:0012
#03758:52
#0385c:52
#03858:0022
#03852:0012
#03956:52
#03958:0052
#03953:00220000
#0395b:00000022
#04056:52
#04058:52
#04158:62
#0415b:00220000
#04156:0062
#04153:00000022
#04258:62
#04357:00000053
#0435b:53
#04556:00000063
#04552:63
#04852:0000000000000013
#04952:0000006300000000
#0495b:0000000000630000
#04958:0000000000000053
#04955:0000000000000053
#05455:00530000
#05458:0000000000000053
#05852:1818
#0585a:6464
#05854:00000026
#05856:00250000
#05952:68240000
#05954:0016
#0595a:44
#0605a:00240000
#06056:5816
#06052:14
#05755:0000000000000022
#0575c:42
#0615b:13
#0615a:0014
#06155:5454
#06259:15
#06252:00240000
#06255:54
#0635a:1414
#06552:1414
#06455:0014
#0645a:14
#06656:5418
#0675a:00240000
#06756:5816
#06752:14
#06852:68240000
#0685a:14
#06854:0016
#06952:1314
#06957:6464
#07052:15
#0705a:00240000
#07057:64
#0715a:1414
#07155:64
#07252:1414
#0735a:14001454
#07452:6454
#07457:6414
#07456:00000024
#07455:00240000
#0745a:00240000
#0755a:5444
#07556:00240000
#07555:0054
#07554:34
#07652:14
#07657:54
#07758:56
#05654:00000054
#00158:0052
#00556:0062
#00358:0052
#0105b:00220000
#01058:52
#01053:00220000
#01056:62
#00658:0062
#00656:0052
#01258:52250000
#01253:00250000
#01256:62
#00456:00220000
#00453:52
#00857:00220000
#00859:5252
#00855:5252
#00853:00220000
#00254:52620000
#00253:0022000000000000
#00255:0000002200000000
#00755:6252
#00753:00220000
#00757:00000022
#05258:00630000
#001380:0012
#0013b0:0000000000323232
#0023b0:22
#002341:12322200
#002331:0052000000000000
#002351:0000005200000000
#003381:0012
#0033b1:0000000000323232
#0043b1:3222
#004330:1232003222000000
#004360:00520000
#005360:0012
#005330:0000000000323232
#006330:22
#006380:00123200
#0063b0:00000022
#006361:0012
#006331:00000022
#007351:1252
#007331:00520000
#007371:00000052
#008351:3252
#008331:00520000
#008371:00000022
#008390:1232
#008380:0032000000000000
#008370:0000323200000000
#0083b0:00000022
#010380:1222
#0103b0:00320000
#010361:1222
#010331:00320000
#012381:1235353522000000
#012360:1222
#012330:0035353500000000
#013360:12
#013320:00000052
#014320:0000000000000032
#015320:32
#015360:0000003232000032
#016360:32520000
#017320:56
#017360:00000000000000000000000000000000000000000000000052000000000000520000005200000052000000520000005200000000000052000000000000005200
#017350:00000000000000005353535353005300
#018350:53
#018360:0000005200000052000000520000005200000000000000000000000000000000
#018340:0054000000000000
#018330:00550000
#018320:0000005626000000
#014381:12
#0143c1:0000000000005232
#0153c1:32
#015381:0000003232000032
#016381:32520000
#017381:56000000000000000000000000000000000000000000000052000000000000525300005253000052530000525300005253000000000052005300000000005200
#018381:5300005254000052550000525600005226000000000000000000000000000000
#0193b1:13
#019371:0053
#0203b1:23
#020360:13
#020320:0053
#021360:23
#0213b1:13
#021371:0053
#0223b1:23
#022360:13
#022320:0023
#022371:0013
#0233b1:23
#023320:13
#023360:0053
#024320:23
#024371:13
#0243b1:0053
#025371:23
#025320:13
#025360:0053
#026320:23
#026371:13
#0263b1:0023
#028341:12
#028321:00320000
#028361:0022
#0303a1:12
#0303c1:00320000
#030381:0022
#0313a1:0000001200220000
#032361:0012
#032321:00000022
#033361:12220000
#033381:0000001200220000
#034381:0012
#0343c1:00000022
#035361:12
#036321:32
#036361:0052
#037321:22
#037380:12
#0383c0:32
#038380:0052
#0393c0:22
#039361:1222
#039331:00520000
#039380:0012
#0393b0:00000052
#040380:32
#0403c0:0022
#040361:12
#040321:0022
#041381:1222
#0413b1:00520000
#041360:0012
#041330:00000052
#042360:22
#042381:12
#0423c1:00220000
#0433b1:13
#043371:0033333323000000
#043371:00000013
#0433b1:0000000000000033
#0443b1:3333330023000000
#045321:13
#045361:0033333323000000
#045361:00000013
#045321:0000000000000033
#046321:3333330023000000
#049321:0000001300000000
#049351:0000000000330033
#050321:0023
#0493b0:0000000000130000
#049380:0000000000000033
#0503b0:0023
#052380:00130000
#0523b0:0023
#054350:00130000
#054320:0023
#054380:0000000000000013
#0553b0:0023
#056340:00000014
#057350:00000000000000000000000000003232
#058320:28
#056391:0000000000000012
#0563a1:000000000000000000000032
#0563b1:000000000000000000000000000000000000000000000032
#0573c1:22
#0583a1:1434
#058361:00350000
#058341:00000036
#0593a1:24
#059320:18540000
#059340:0026
#0593a1:00001424
#059320:00000014
#060320:24
#060361:1826
#0603a1:00540000
#060320:0000000014000024
#061350:14
#061320:0000002400000000
#061350:0014
#061320:0000000000000024
#062350:1424
#062320:00540000
#064370:00140000
#0643a0:0024
#064370:00000014
#0653a0:24
#066360:14
#066320:0024
#067360:1826
#0673a0:00540000
#067321:00001424
#0673a0:00000014
#0683a0:24
#068321:18540000
#068341:0026
#0683a0:0000000014000024
#069370:14
#0693a0:0000002400000000
#069370:0014
#0693a0:0000000000000024
#070370:1424
#0703a0:00540000
#071350:14
#071320:00240000
#072370:0000000000140000
#0723a0:0000000000000024
#0733a0:00000014
#074370:3424
#0743a0:00540000
#074321:1434
#074351:00540000
#074361:00000054
#075341:24
#0753a0:1424
#075360:00540000
#075351:0014
#076321:24
#076370:14
#0763a0:0024
#077380:16
#0793c0:22
#078321:00000012
#079321:22
#083361:12
#084361:22
#084380:12
#086380:32322200000000000000000000000000
#085321:12
#090321:0022
#087380:0012000000000000
#087390:0000000000000032000032000000000000000000000000000000000000000000
#0903c0:0022
