This file was generated by Ched 2.7.0.0.
#TITLE ""
#ARTIST ""
#DESIGNER ""
#DIFFICULTY 0
#PLAYLEVEL
#SONGID ""
#WAVE ""
#WAVEOFFSET 0
#JACKET ""
#REQUEST "ticks_per_beat 480"
#00002: 4
#BPM01: 176
#00008: 01
#TIL00: ""
#VOLUME: ""
#HISPEED 00
#MEASUREHS 00
#04918:0013001300000000
#04915:00130000
#07517:00140014
#0751a:1414
#00118:0032323212000000
#0011b:1200000000323232
#0021b:12
#00217:00320000
#00316:0000323212000000
#00313:1200000000323232
#00413:12
#00417:0032003200000000
#0051b:0032323212000000
#00518:1200000000323232
#00619:12
#0061c:0032320000000000
#00713:0032323212000000
#00716:1200000000003232
#00815:12
#00812:0032323200000000
#00918:12
#0091b:0032323212000000
#00919:0000000000323232
#01019:12
#0101c:00320000
#01116:12
#01113:0032323212000000
#01115:0000000000323232
#01215:12
#01218:0000000000000012
#01212:0032323200000000
#01414:0000000000000012
#01413:12
#0141a:0000000000000012
#01313:12
#01316:0012
#01514:12
#01516:0012
#0151a:12
#01518:0012
#01614:12
#0161a:12
#01716:0012
#01718:0012
#01918:0000001300000000
#01915:00000013
#01912:24
#01910:41
#0201b:13
#02112:13
#02118:0000001300000000
#0211b:00000013
#02215:13
#02315:0000001300000000
#02318:00000013
#0231a:24
#02412:13
#02418:0013
#02515:13
#0251b:0000001300000000
#02512:00000013
#02618:13
#02718:1200120000323232
#02716:0012001200000000
#02710:41
#02916:1200120000323232
#02918:0012001200000000
#03118:12120000
#03116:0012001200000000
#03113:00000000000000000000321232003200
#03316:12120000
#03318:0000001200000000
#0331b:00000000000000000000321200003200
#0351b:12120000
#03516:0012001200000000
#03518:0000000000323232
#03510:41
#03713:12120000
#03718:0012001200000000
#03716:0000000000323232
#03816:0032320000000012
#03918:12
#0391b:0012
#04018:1200000000000012
#04116:12
#04113:0012
#04216:12
#04315:0013001300000000
#0431b:23131300
#04312:00000013
#04318:0000000000000013
#0431f:11
#04412:13130000
#04418:0013000000000000
#0441b:0000000000130013
#04415:00000013
#04512:13131300
#04518:0013001300000000
#0451b:00000013
#04515:0000000000000013
#0461b:13130000
#04615:0013000000000000
#04612:0000000000130013
#04618:00000013
#04815:1300000000333300
#04812:0033333313000000
#04718:1300000000333333
#0471b:0033333313000000
#05015:0000000000130013
#05018:00000013
#05112:0013001300000000
#0511b:23130000
#05118:00001313
#05115:0000000000130013
#0521b:13
#05218:0013000000130013
#05215:00130013
#05312:13130000
#0531b:0013001300000000
#05315:00001313
#05318:0000000000130013
#05412:13
#05418:0000130000000013
#05415:0013000000001300
#05515:0000000000000013
#05618:1300130000130000
#05615:0013000000001300
#05612:0000001300000000
#0561b:0000000000000023
#05818:00000014
#05812:0026
#0581f:21
#06014:0000000000000014
#06017:24
#0611a:14
#06112:0000001400000000
#06118:0014
#06114:0000000000000014
#0621a:14
#06212:0013
#06218:0000000000130000
#06215:00000013
#0621b:0000000000000013
#06318:0013001300000000
#06312:23130000
#06315:00001313
#0631b:0000000000130013
#06412:1400000000000013
#0641a:00140000
#06415:0013
#06418:00000013
#0651b:13130000
#06515:0013001300000000
#06518:00001313
#06512:0000000000130013
#06612:00000014
#06618:13
#06818:0000000000000014
#06815:24
#06912:14
#0691a:0000001400000000
#06914:0014
#06918:0000000000000014
#07012:1400000000000013
#0701b:0013
#07015:0000000000130000
#07018:00000013
#07115:00130000
#07118:0000001300130013
#07112:00001313
#0711a:24
#07110:41
#07218:0000000000000013
#07215:13130000
#0721b:0013001300000000
#07212:0000000000130000
#07315:1313
#0731b:0013000000130000
#07312:00130013
#07318:0000001300000000
#07418:13
#07415:00000013
#05917:00000014
#05915:24
#05910:41
#06715:00000014
#06717:24
#07712:16
#07718:26
#03416:12
#03413:0032323200000000
#03218:12
#0321b:0032323200000000
#03618:0032320000000000
#08719:0000000000000032000032000000000000000000000000000000000000000000
#0281b:00320000
#03013:00320000
#08310:41
#01952:14
#07557:00240024
#0755a:5454
#07758:56
#07752:66
#0015b:62
#00158:0022
#0025b:62
#00353:52
#00356:0022
#00453:52
#00558:52
#0055b:0022
#00659:52
#00756:62
#00753:0022
#00855:62
#00958:62
#0095b:0062
#01059:62
#01156:52
#01153:0052
#01255:52
#01353:62
#01356:0062
#01453:62
#01554:62
#01556:0052
#0155a:52
#01558:0062
#01654:62
#0165a:52
#01756:0022
#01758:0022
#0205b:13
#02255:63
#02452:13
#02658:53
#02152:13
#02555:13
#03153:00000000000000000000002200000000
#03156:0000006200000000
#03358:0000005200000000
#0335b:00000000000000000000002200000000
#04058:62
#0395b:0062
#03958:62
#04156:52
#04153:0052
#04256:52
#04252:0012
#04852:0023
#04855:5300000000000013
#04758:63
#0475b:0023
#05458:0000530000000053
#05255:00530000
#05858:16
#05852:0016
#0605a:0014
#06057:64
#0615a:14
#06158:0014
#0625a:14
#06452:14
#0645a:00140000
#06658:63
#06952:14
#06954:0014
#07052:14
#0675a:0014
#06757:64
#05952:0014
#05955:54
#0725b:0000001300000000
#07352:00000013
#0745b:0013
#07458:53
#06852:0014
#06855:54
#0715a:14
#0765a:14
#03456:62
#03258:52
#0235a:14
#0013b0:1200000000323232
#001380:0032323232000000
#0023b0:32
#002370:00320000
#002380:0022
#003330:1200000000323232
#003360:0000323232000000
#004330:32
#004370:0032003200000000
#004360:0022
#005380:1200000000323232
#0053b0:0032323232000000
#006390:32
#0063c0:0032320022000000
#007360:1200000000003232
#007330:0032323232000000
#008350:32
#008320:0032323222000000
#009380:12
#0093b0:0032323232000000
#009390:0000000000323232
#010390:32
#0103c0:00322200
#011360:12
#011330:0032323232000000
#011350:0000000000323232
#012350:32
#012320:0032323222000000
#013330:1200000000000032
#013360:0000003232000000
#014330:32
#014360:0022
#015340:1200000000000032
#015360:0000003232000000
#016340:32
#017360:0052
#018320:0026
#0153a1:1200000000000032
#015381:0000003232000000
#0163a1:32
#017381:0052
#018381:0026
#022351:13
#022321:0023
#026381:13
#0263b1:0023
#027381:0000000012323232
#0283b1:32320000
#028381:0022
#029361:0000000012323232
#030331:32320000
#030361:0022
#031361:0000001200000000
#031331:00000000000000000000325232003200
#032361:22
#032380:12
#0323b0:0032323222000000
#033380:0000001200000000
#0333b0:00000000000000000000325200003200
#034380:22
#034361:12
#034331:0032323222000000
#0353b1:0012
#035381:0000000000323232
#036381:3232320000000000
#0363b1:0022
#037331:0012
#037361:0000000000323232
#038361:3232320000000000
#038331:0022
#039381:1200000000000032
#0393b1:0000003232000000
#040381:32
#0403c1:0022
#041361:1200000000000032
#041331:0000003232000000
#042361:32
#042321:0022
#047381:1300000000333333
#0473b1:0033333333000000
#048381:23
#048350:1300000000333323
#048320:0033333333000000
#049320:0000000000130000
#050320:0023
#0493b1:0000000000000013
#0503b1:0023
#052351:00130000
#052321:0023
#054381:00130000
#0543b1:0023
#054381:0000000000000013
#0553b1:0023
#0563b1:0000000000000013
#058381:26
#059351:14
#059321:0024
#060371:14
#0603a1:0024
#066381:13
#0663b1:0023
#067371:14
#0673a1:0024
#068351:14
#068321:0024
#074381:13
#0743b1:0023
#0753a1:1434
#075371:00540034
#0763a1:24
#076321:000000163636
#077321:56
#079361:22
#077380:16
#079380:22
#083360:12
#084360:22
#084381:12
#085381:22
#085360:12
#086360:22
#087380:0012000000000000
#087390:0000000000000032000032000000000000000000000000000000000000000000
#0903c0:0022
