This file was generated by Ched 2.7.0.0.
#TITLE ""
#ARTIST ""
#DESIGNER ""
#DIFFICULTY 0
#PLAYLEVEL
#SONGID ""
#WAVE ""
#WAVEOFFSET 0
#JACKET ""
#REQUEST "ticks_per_beat 480"
#00002: 4
#BPM01: 176
#00008: 01
#TIL00: ""
#VOLUME: ""
#HISPEED 00
#MEASUREHS 00
#01914:0014
#0191a:24
#01910:41
#02018:14
#02112:14
#02118:0014
#02214:14
#02318:14
#02314:0014
#0241a:14
#02514:14
#02518:0014
#02612:14
#02814:0014
#03018:0014
#03212:0014
#0341a:0014
#03618:0014
#03812:0014
#0401a:0014
#04214:0014
#0431a:14
#04314:0014
#0431f:11
#04418:1414
#04512:14
#04518:0014
#04614:1414
#0471a:14
#04716:0014
#04812:14
#04816:0014
#0491a:14
#04912:0014
#05018:14
#05014:0014
#0511a:14
#05112:0014
#05218:1414
#05214:00140000
#05312:14
#0531a:0014
#05414:1414
#05418:00140000
#0551a:14
#05512:0014
#05618:14
#05912:0014
#05918:26000014
#05910:41
#06314:00140000
#06318:0014
#06312:00000014
#0631a:24
#0641a:14
#06414:00140000
#06418:0014
#06412:00000014
#0651a:1414
#06514:00140014
#0661a:14000014
#06614:0014
#0671a:0014
#06714:00000014
#06712:26
#07118:00140000
#07114:0014
#0711a:00000014
#07112:24
#07110:41
#07212:14
#07218:00140000
#07214:0014
#0721a:00000014
#07312:1414
#07318:00140014
#07412:14
#07418:0014
#07414:00000014
#0751a:14
#07518:00003434
#03514:14
#03510:41
#03718:14
#03912:14
#0411a:14
#07618:1434
#05818:26
#05812:0026
#0581f:21
#0771a:24
#08714:0000000000000034000034000000000000000000000000000000000000000000
#08310:41
#02710:41
#02058:14
#02254:14
#0245a:14
#02652:14
#0435a:14
#0515a:14
#05958:16
#06052:0014
#0615a:0014
#06254:0014
#0665a:14
#07452:14
#0685a:0014
#06952:0014
#07058:0014
#06752:16
#0775a:14
#0755a:64
#0415a:64
#03952:64
#03758:64
#03554:64
#07658:24
#0013a0:14
#0023a0:24
#003320:14
#004320:24
#005380:14
#006380:24
#007340:14
#008340:24
#0093a0:14
#010380:24
#011320:14
#012340:24
#013380:14
#0143a0:24
#015340:14
#016320:34
#018320:0026
#0273a0:14
#0283a0:24
#029340:14
#030340:24
#031380:14
#032380:24
#033320:14
#034320:24
#035340:14
#036320:24
#037380:14
#0383a0:24
#039320:14
#040340:24
#0413a0:14
#042380:24
#056340:0014
#057340:24
#060320:1424
#0613a0:1424
#062340:1424
#0683a0:1424
#069320:1424
#070380:1424
#0753a0:14
#075380:00003434
#076380:3434
#0773a0:24
#079320:14
#080330:34
#081340:24
#0833a0:14
#084390:34
#085380:24
#086340:14
#087340:0000000034000034000034000000000000000000000000000000000000000000
#090320:0023
