This file was generated by Ched 2.7.0.0.
#TITLE ""
#ARTIST ""
#DESIGNER ""
#DIFFICULTY 0
#PLAYLEVEL
#SONGID ""
#WAVE ""
#WAVEOFFSET 0
#JACKET ""
#REQUEST "ticks_per_beat 480"
#00002: 4
#BPM01: 194
#00008: 01
#TIL00: ""
#VOLUME: ""
#HISPEED 00
#MEASUREHS 00
#00119:14
#00319:14
#0051a:14
#0061a:14
#00714:14
#00814:14
#00918:14
#01018:14
#01112:14
#01212:14
#00213:14
#00413:14
#0131a:14
#01310:41
#01414:14
#01712:14
#01818:14
#02118:14
#02212:14
#02514:14
#0261a:14
#02919:14
#02910:41
#03013:14
#03119:14
#03213:14
#0331a:14
#0341a:14
#03514:14
#03614:14
#03718:14
#03818:14
#03912:14
#04012:14
#04118:14
#04110:41
#04214:14
#04514:14
#04618:14
#0491a:14
#05012:14
#05312:14
#0541a:14
#05719:14
#05710:41
#05913:14
#05819:14
#06013:14
#07719:14
#07813:14
#07918:2616
#0791f:21
#08018:16
#08010:41
#08112:1616
#08212:16
#08318:1616
#08418:16
#08512:1616
#08612:16
#09512:2616
#09510:41
#09612:16
#09718:1616
#09818:16
#09912:1616
#10012:16
#10118:1616
#10218:16
#08718:16
#08712:0016
#08818:16
#08912:16
#08918:0016
#09012:16
#09118:16
#09112:0016
#09218:16
#09212:0016
#10312:16
#10318:0016
#10412:16
#10518:16
#10512:0016
#10618:16
#10712:16
#10718:0016
#10812:16
#10818:0016
#0691f:11
#11513:00240000
#11519:00240000
#0153a0:14
#0163a0:24
#019320:14
#020320:24
#023380:14
#024380:24
#027340:14
#028340:24
#043380:14
#044380:24
#047340:14
#048340:24
#0513a0:14
#0523a0:24
#055320:14
#056320:24
#0613a0:14
#0623a0:24
#063380:14
#064380:24
#0653a0:14
#0663a0:24
#067380:14
#068380:24
#069320:14
#070320:24
#071340:14
#072340:24
#073320:14
#074320:24
#075340:14
#076340:24
#093380:16
#094380:26
#109320:16
#110320:26
#111380:16
#113380:26
