This file was generated by Ched 2.7.0.0.
#TITLE ""
#ARTIST ""
#DESIGNER ""
#DIFFICULTY 0
#PLAYLEVEL
#SONGID ""
#WAVE ""
#WAVEOFFSET 0
#JACKET ""
#REQUEST "ticks_per_beat 480"
#00002: 4
#BPM01: 194
#00008: 01
#TIL00: ""
#VOLUME: ""
#HISPEED 00
#MEASUREHS 00
#0031b:130000000013000000000013
#00316:0013
#00312:131300001300
#00317:00130013
#00112:000000130000000000000013
#00117:00130013
#0011b:2313
#00116:0013
#0021b:00130000
#00217:1313
#00216:000013000000000000130000
#00212:000000000013000000000000
#00412:000000130000000013130000
#00419:0013
#0041b:00130013
#00414:0013
#00416:24
#0121b:000013
#01215:00240013
#01218:000000000000000000000013
#0121a:00240000
#01212:0024
#01217:0024
#01416:13
#01417:00130000
#0141b:00000013
#01412:0013
#01618:00000013
#01615:000000000000000000000013
#0161b:00131300
#02718:1616
#02714:002424000000
#02713:000000002424
#02818:160034
#02812:002424003400
#0281a:0024
#02814:0024
#06015:000013000013000000000000
#06018:00131300
#0601a:24000014
#06012:24000014
#06312:130000000000000013130000
#0631b:000013130000130000000013
#06315:000000000013000000000000
#06419:001300000000
#06417:000000000013000000000000
#06418:000013
#06415:000000000000000000130013
#06416:14
#06414:00140000
#06412:0014
#06915:13
#06912:0013
#0691b:00130013
#06918:000000000013000000000013
#0691f:11
#07215:00000013
#07218:000000000000000000000013
#0721a:2424
#07212:00240000
#08012:24000013
#08018:000000000000000000000013
#0801b:00000013
#08016:00240000
#0801a:0024
#08010:41
#08212:001300001300
#08215:000000000013000000001300
#08218:00240013
#0821b:000000000000000000000013
#0821a:2424
#08417:001300000000
#0841b:000000000013000000000000
#08415:00000013
#08418:00000013
#08412:24242400
#08616:001300000000
#08612:000000000013000000240000
#08615:000000000000001300000013
#08618:000000001313
#0861a:24242400
#09712:130000131300
#09716:0013000000000000
#0971b:00130000
#09717:00000013
#09819:001300000000
#09817:000000000013000000000000
#0981b:000013
#09815:00000013
#09818:000000000013
#09812:000000000000240000000013
#09814:00240000
#09816:24
#11312:130000130013000000000000
#1131b:13
#11318:001300131300
#11315:000000000000000000130013
#00012:00000013
#00018:000000000013
#00015:000000000000000000000013
#00514:000000000014
#00518:000000000014
#0051a:240024
#00512:240024
#00714:000000000014
#00718:000000000014
#00715:24
#0071a:240024
#00712:000024
#00815:000000000014
#0081a:000000000014
#00817:000024
#00812:000024
#00917:000000000014
#00912:000000000014
#00915:000024
#0091a:000024
#01115:000000000014
#0111a:000000000014
#01112:240024
#01117:240024
#01316:00130000
#01312:13000013
#01317:00000013
#0131b:00131300
#01310:41
#01817:13
#01816:00130000
#01812:00000013
#0181b:0013
#02015:00000013
#02018:000000000000000000000013
#02012:00131300
#0171b:13000013
#01712:00131300
#01716:00000013
#01717:00130000
#02215:13
#0221b:00130000
#02218:00000013
#02212:0013
#02415:000000000000000000000013
#0241b:00131300
#02418:00000013
#02112:00130013
#02115:13
#0211b:00130013
#02118:0013
#02618:13
#02612:00130000
#02615:00000013
#0261b:0013
#0251b:00130013
#02518:13
#02512:00130013
#02515:0013
#0401b:000013
#04016:00000013
#04012:230000000000240000000013
#04015:00240000
#0401a:00240000
#04017:0024
#04018:23
#03315:000000000013
#03318:000000000013
#0331b:000013
#03312:240013
#0331a:24
#03515:240000000013
#03518:000000000013
#03512:000013
#0351b:000013
#0351a:24
#03615:000000000013
#0361b:230000000013
#03618:000013
#03612:230013
#03718:230000000013
#03712:230000000013
#03715:000013
#0371b:000013
#04117:13
#04116:00130013
#0411b:001300131300
#04110:41
#04217:13
#04216:00130000
#04212:00000013
#0421b:0013
#04412:00131313
#0441b:000000000000000000130013
#0481b:00131313
#04815:000000000000000000000013
#04812:00000013
#0491b:131300000000
#04915:000000130013000000000000
#04918:000000131300
#04912:000000000000000000130013
#05012:00130000
#05018:0013
#05015:00000013
#0501b:13
#05715:130000000013000000000023
#0571b:13
#05712:000023
#05710:41
#05818:000000000013000000000023
#0581b:130023
#05915:000000000013000000000000
#05912:130013
#05918:00000023
#06112:241300000000
#06118:000000130013000000000000
#06115:000000131300
#0611b:000000000000000000130013
#0611a:24
#0621b:000013
#06215:00000013
#06218:000000000000000000000013
#06212:1414
#0621a:00140000
#07312:13000013
#0731b:00131300
#07315:000000000013000000000000
#07318:000000000000000000000013
#07415:13
#07418:00130000
#0741b:00000013
#07412:0013
#07917:13
#07916:00130000
#07918:000000000013000000000013
#0791b:000013
#07912:23
#0791f:21
#08115:130000000013000000000013
#08118:00130013
#08112:000013
#0811b:0013
#0831b:000000000013000000000013
#08318:001300001300
#08512:000000000013000000000013
#08515:001300001300
#09112:000000000013000000000013
#09115:001300001300
#09118:00000013
#09516:13
#09517:00130000
#0951b:23000013
#09512:0013
#09510:41
#0961b:00230013
#09617:0000000023000013
#09616:00230013
#09612:2323
#0991b:130000000013000000000013
#09912:00130000
#09918:000013
#10012:23000013
#10017:00000013
#10019:00230000
#1001b:0023
#10014:00230000
#10016:0023
#1011b:130000000000000000000013
#10112:001300130000
#10117:00130000
#10118:000013
#10115:00000013
#10219:001300000000
#10217:000000000013000000000000
#10218:000000000000001300000013
#10215:000000001313
#10212:24242400
#1021a:00000024
#11015:000000000013001300000013
#11018:000000261313
#11012:24240026
#1101a:24240000
#11418:000013001313
#11415:000000000013001300000013
#1141a:2424
#11412:00240024
#07512:1616
#07512:16
#07518:002424000000
#07519:000000002424
#07612:16
#07614:0024
#07618:0024
#0761a:002424000000
#05512:1616
#05518:002424000000
#05519:000000002424
#05612:1624
#05618:0024
#0561a:002424003400
#05614:000034
#01512:14
#01516:0000000000140000
#0151b:00130013
#0191a:14
#01916:0000000000140000
#01912:00130013
#02316:14
#02312:0000000000140000
#0231b:00130013
#0431a:14
#04316:0000000000140000
#04312:00130013
#04516:13
#04517:00130013
#04512:001300131300
#04616:13
#04617:00130000
#0461b:00000013
#04612:0013
#04712:14
#04716:0000000000140000
#0471b:00130013
#05117:14
#0511a:0000000000140000
#05112:00130000
#05114:00000013
#05212:00131313
#05218:000000000000000000000013
#0521b:00000013
#05312:131300000000
#05318:000000130013000000000000
#05315:000000131300
#0531b:000000000000000000130013
#0541b:00130000
#05415:0013
#05418:00000013
#05412:13
#0671b:130000000000000013130000
#06712:000013130000130000000013
#06718:000000000013000000000000
#06814:001300000000
#06816:140000000013000000000000
#06815:000000001313
#06818:000000140000000000130013
#0681a:0014
#0651b:001300000000
#06515:000000130013000000000000
#06518:000000131300
#06512:240000000000000000130013
#0651a:24
#06612:000000140000000013000000
#06618:00000013
#06615:000000000000000000000013
#0661a:1414
#07118:13
#0711b:0013
#07112:00130013
#07115:000000000013000000000013
#1051b:130000131300
#10517:0013000000000000
#10512:00130000
#10516:00000013
#10614:001300000000
#10616:240000000013000000000000
#10612:000013
#10618:00240013
#10615:000000000013
#1061b:000000000000000000000013
#1061a:0024
#10317:13
#10316:00130000
#10312:23000013
#1031b:0013
#10412:00230013
#10416:0000000023000013
#10417:00230013
#1041b:2323
#10712:130000000013000000000013
#1071b:00130000
#10715:000013
#11115:0000000000000016
#11118:26
#07812:001400000000
#0781a:000000000014000000000000
#07818:000000240000001400240014
#07814:000000241414
#03915:000000000013
#0391b:000000000013
#03918:000013
#03912:240013
#03917:24
#03112:130000000013000000000013
#03117:0013
#0311b:131300001300
#03116:00130013
#0291b:000000130000000000000013
#02916:00130013
#02912:2313
#02917:2313
#02910:41
#03012:00130000
#03016:1313
#03017:000013000000000000130000
#0301b:000000000013000000000000
#0321b:000000130000000013130000
#03214:0013
#03212:00130013
#03219:0013
#03216:24
#0881b:00000013
#08815:000000000000000000000013
#08812:00002413
#0881a:24
#08816:00240000
#0901b:001300001300
#09018:000000000013000000001300
#09015:00000013
#09012:240000000000240000000013
#09014:00240000
#08716:13
#08717:00130000
#08715:000000000013000000000013
#08712:000013
#0871b:23
#08918:130000000013000000000013
#08915:000013130000000000130000
#0891b:000013
#08912:0013
#07012:240000000000240000000024
#0701a:00240024
#07015:00240024
#07017:0024
#07716:24
#09218:26
#09216:00260000
#09214:0026
#09212:00000026
#09315:23
#09318:23
#09412:24000025
#0941a:24
#09416:00242400
#09419:00000025
#1091a:243434343434343434000000
#10915:243434343434343434000000
#11513:000000240024000000000000
#11519:000000240024000000000000
#1151a:24
#10812:00000026
#10814:0026
#10816:00260000
#10818:26
#0341b:23
#03412:23
#03815:23
#0381b:23
#01456:53
#01457:00630000
#0145b:00000053
#01452:0063
#06352:63
#0635b:0053
#06955:63
#06952:0063
#08455:00000063
#08452:0014
#00554:000000000024
#00558:000000000024
#0055a:140054
#00552:140054
#00754:000000000024
#00758:000000000024
#00755:14
#0075a:140054
#00752:000054
#00855:000000000024
#0085a:140000000024
#00857:000054
#00852:140054
#00957:140000000024
#00952:140000000024
#00955:000064
#0095a:000064
#01155:000000000024
#0115a:000000000024
#01152:140054
#01157:140054
#01356:00230000
#01352:53
#01357:00000023
#0135b:0063
#00156:0053
#00257:0063
#01857:63
#01856:00530000
#01852:00000063
#0185b:0053
#01752:0053
#01756:00000023
#0175b:63
#01757:00230000
#02255:53
#0225b:00630000
#02258:00000053
#02252:0063
#02152:00230000
#02155:63
#0215b:00000023
#02158:0053
#02658:63
#02652:00530000
#02655:00000063
#0265b:0053
#0255b:00230000
#02558:53
#02552:00000023
#02555:0063
#03355:000000000023
#03358:000000000023
#0335b:000053
#03352:140053
#0335a:14
#03555:140000000023
#03558:000000000023
#0355a:14
#0355b:000053
#03552:000053
#03655:000000000023
#0365b:130000000023
#03658:000053
#03652:130053
#03758:130000000023
#03752:130000000023
#03755:000053
#0375b:000053
#04257:63
#04256:00530000
#04252:00000063
#0425b:0053
#05052:00630000
#05058:0063
#05055:00000053
#0505b:53
#04156:00530053
#05755:53
#0585b:53
#05952:63
#07352:53
#0735b:0063
#07455:53
#07458:00630000
#0745b:00000053
#07452:0063
#07957:53
#07956:00630000
#08155:63
#08158:00530000
#09556:53
#09557:00630000
#0955b:00000053
#09552:0063
#0965b:00130063
#09657:0000000013000023
#09652:1313
#09656:00130000
#09752:53
#09756:0023000000000000
#0975b:00530000
#09757:00000063
#0995b:53
#09952:00630000
#10052:13000063
#1005b:0013
#10056:0013
#10054:00130000
#10059:00130000
#1015b:53
#10157:00530000
#06252:3434
#0625a:00440000
#06456:34
#06454:00340000
#06452:0034
#00456:14
#01255:00140000
#0125a:00140000
#01252:1414
#01257:1414
#0285a:0054
#02854:0054
#02858:00000014
#02852:00000014
#0605a:14
#06052:14
#07654:0064
#07658:0054
#07652:00000014
#0765a:00000014
#0825a:4444
#08258:00440000
#09258:16
#09256:00160000
#09254:0016
#09252:00000016
#09355:53
#09358:63
#09452:14000015
#0945a:14
#09456:00141400
#09459:00000015
#09854:00140000
#09852:0014
#09856:14
#1095a:64
#10955:64
#11052:34340000
#1105a:44440000
#1145a:14
#11553:000000340034000000000000
#11559:000000440044000000000000
#1155a:14
#03952:140063
#03957:14
#03955:000000000023
#0395b:000000000023
#03958:000063
#04055:00140000
#0405a:00140000
#04052:1314
#04057:0014
#04058:13
#05652:0064
#05658:0064
#05654:00000014
#0565a:00000014
#10852:00000016
#0065a:14
#00652:14
#01055:14
#0105a:14
#01552:54
#01556:0000000000240000
#0195a:64
#01956:0000000000240000
#02356:54
#02352:0000000000240000
#04356:0000000000240000
#0435a:54
#04656:53
#04657:00630000
#0465b:00000053
#04652:0063
#04557:00630063
#04752:64
#04756:0000000000240000
#05157:64
#0515a:0000000000240000
#0545b:00530000
#05455:0053
#05458:00000063
#05452:63
#0675b:53
#06752:0063
#0665a:4444
#06652:00340000
#06856:44
#06858:00440000
#0685a:0044
#07158:53
#0715b:0053
#0725a:1414
#07252:00140000
#10357:63
#10356:00530000
#10352:00000063
#1035b:0053
#10452:00130053
#10456:0000000013000023
#1045b:1313
#10457:00130000
#1055b:63
#10557:0023000000000000
#10552:00630000
#10556:00000053
#10752:63
#1075b:00530000
#10658:00140000
#1065a:0014
#10656:14
#11155:0000000000000026
#11158:56
#0805a:0014
#03452:13
#0345b:13
#0385b:13
#03855:13
#02957:0063
#03056:0053
#03256:14
#08756:63
#08757:00530000
#08958:53
#08955:00630000
#08852:0014
#09052:3434
#09054:00340000
#001360:0013
#001320:00000023
#002370:0013
#0023b0:00000023
#0053a0:000014
#005380:000000000054
#0063a0:24
#005321:000014
#005341:000000000054
#006321:24
#0073a1:000014
#007381:000000000054
#0083a1:24
#007320:000014
#007340:000000000054
#008320:24
#008370:000014
#0083a0:000000000054
#009370:24
#008321:000014
#008351:000000000054
#009321:24
#009351:000014
#009321:000000000054
#010351:24
#0093a0:000014
#009370:000000000054
#0103a0:24
#011370:000014
#0113a0:000000000054
#012370:24
#011321:000014
#011351:000000000054
#012321:24
#013321:1323
#013361:00330000
#0133b0:0013
#013370:00000033
#0143b0:23
#014361:13
#014321:00230000
#014370:00130000
#0143b0:0023
#014321:0013
#014361:00000023
#0143b0:00000013
#015370:23
#015321:14
#015361:0000000000540000
#016321:00342400
#0173b1:1323
#017371:00330000
#017320:0013
#017360:00000033
#018320:23
#018371:13
#0183b1:00230000
#018360:00130000
#018320:0023
#0183b1:0013
#018371:00000023
#018320:00000013
#019360:23
#0193a1:14
#019361:0000000000540000
#0203a1:00342400
#021351:1323
#021321:00330000
#021380:0013
#0213b0:00000033
#022380:23
#022351:13
#022321:00230000
#0223b0:00130000
#022380:0023
#022321:0013
#022351:00000023
#022380:00000013
#0233b0:23
#023361:14
#023321:0000000000540000
#024361:00342400
#025381:1323
#0253b1:00330000
#025350:0013
#025320:00000033
#026350:23
#026381:13
#0263b1:00230000
#026320:00130000
#026350:0023
#0263b1:0013
#026381:00000023
#026350:00000013
#027320:23
#0283a0:0014
#028380:000000000000000034240000
#028341:0014
#028321:000000000000000034240000
#029371:0013
#0293b1:00000023
#030361:0013
#030321:00000023
#0333b1:000013
#033381:000000000053
#0343b1:23
#033320:000013
#033350:000000000053
#034320:23
#0353b0:000013
#035380:000000000053
#0363b0:23
#035321:000013
#035351:000000000053
#036321:23
#036381:000013
#0363b1:000000000053
#037381:23
#036320:000013
#036350:000000000053
#037320:23
#037350:000013
#037320:000000000053
#038350:23
#0373b1:000013
#037381:000000000053
#0383b1:23
#039381:000013
#0393b1:000000000053
#040381:23
#039320:000013
#039350:000000000053
#040320:23
#041360:00130000
#041320:0023
#041360:00000013
#042320:23
#042371:13
#0423b1:0053230000000000
#042360:00130000
#042320:0000005323000000
#0423b1:0013
#042371:0000000000532300
#042320:00000013
#042360:0000000000000053
#043360:23
#0433a1:14
#043361:0000000000540000
#0443a1:00342400
#045371:00130000
#0453b1:0023
#045371:00000013
#0463b1:23
#046360:13
#046320:0053230000000000
#046371:00130000
#0463b1:0000005323000000
#046320:0013
#046360:0000000000532300
#0463b1:00000013
#046371:0000000000000053
#047371:23
#047320:14
#047360:0000000000540000
#048320:00342400
#0503b0:13
#050380:0053230000000000
#050321:00130000
#050351:0000005323000000
#050380:0013
#0503b0:0000000000532300
#050351:00000013
#050321:0000000000000053
#051321:23
#051370:14
#0513a0:0000000000540000
#052370:00342400
#054320:13
#054350:0053230000000000
#0543b1:00130000
#054381:0000005323000000
#054350:0013
#054320:0000000000532300
#054381:00000013
#0543b1:0000000000000053
#0553b1:23
#056321:0014
#056341:000000000000000034240000
#056380:0014
#0563a0:000000000000000034240000
#057350:13
#057320:00230000
#057381:00130000
#0573b1:000000000023000000000000
#0573b1:0013
#057381:000023
#057381:00000013
#0573b1:000000000000000000000023
#0583b1:13
#058381:00230000
#058350:00130000
#058320:000000000023000000000000
#058320:0013
#058350:000023
#058350:00000013
#058320:000000000000000000000023
#059320:13
#059350:00230000
#059381:00130000
#0593b1:000000000023000000000000
#0593b1:0013
#059381:000023
#063321:13
#063361:002300000000
#0633b1:0013
#063371:000023
#0673b1:13
#067371:002300000000
#067321:0013
#067361:000023
#069351:13
#069321:00230000
#069321:0013
#069351:00000023
#071381:13
#0713b1:00230000
#0713b1:0013
#071381:00000023
#073321:13
#073351:00230000
#0733b1:0013
#073381:00000023
#074351:13
#074321:0053230000000000
#074380:00130000
#0743b0:0000005323000000
#074321:0013
#074351:0000000000532300
#0743b0:00000013
#074380:0000000000000053
#075380:23
#076340:0014
#076320:00000024
#076381:0014
#0763a1:00000024
#077361:1434
#078321:2c
#079371:13
#0793b1:00230000
#079360:00130000
#079320:000000000023000000000000
#079350:000000132300
#079320:000000000000000000130023
#081350:13
#081320:00230000
#081381:00130000
#0813b1:000000000023000000000000
#083321:132300000000
#083351:000000130023000000000000
#083321:000000132300
#083351:000000000000000000130023
#084351:00000013
#085321:23
#0853b0:132300000000
#085380:000000130023000000000000
#0853b0:000000132300
#085380:000000000000000000130023
#087360:13
#087320:00230000
#087371:00130000
#0873b1:000000000023000000000000
#087381:000000132300
#0873b1:000000000000000000130023
#089381:13
#0893b1:00230000
#089350:00130000
#089320:000000000023000000000000
#0913b0:132300000000
#091380:000000130023000000000000
#0913b0:000000132300
#093350:13
#093320:00000026
#093381:13000026
#095361:13
#095321:0053230000000000
#095370:00130000
#0953b0:0000005323000000
#095321:0013
#095361:0000000000532300
#0953b0:00000013
#095370:000000000000000000000000000000000000000000533300
#096370:23
#0963b0:00000013
#096370:0000000000000053
#0973b0:23
#097321:13230000
#097361:0053000000000000
#0973b0:00130000
#097370:0023
#097370:00000013
#0983b0:23
#0993b0:13
#099370:00230000
#099321:00130000
#099351:000000000023000000000000
#099321:000000132300
#099351:000000000000000000130023
#100321:00000013
#101361:23
#1013b0:13
#101370:002300000000
#101370:00130000
#1013b0:0023
#103370:13
#1033b0:000000533300230000000000000000000000000000000000
#103361:00130000
#103321:000000000000000000533300230000000000000000000000
#1033b0:0013
#103370:000000000000000000000000000000533300230000000000
#103321:00000013
#103361:000000000000000000000000000000000000000000533300
#104361:23
#104321:00000013
#104361:0000000000000053
#105321:23
#1053b0:13230000
#105370:0053000000000000
#105321:00130000
#105361:0023
#105361:00000013
#106321:23
#107321:13
#107361:00230000
#1073b0:00130000
#107380:000000000023000000000000
#1073b0:000000132300
#107380:000000000000000000130023
#1093a0:145454545454545454000000
#109370:00000024
#109351:145454545454545454000000
#109321:00000024
#111381:16
#111351:0000000000000056
#112381:00000026
