This file was generated by Ched 2.7.0.0.
#TITLE ""
#ARTIST ""
#DESIGNER ""
#DIFFICULTY 0
#PLAYLEVEL
#SONGID ""
#WAVE ""
#WAVEOFFSET 0
#JACKET ""
#REQUEST "ticks_per_beat 480"
#00002: 4
#BPM01: 194
#00008: 01
#TIL00: ""
#VOLUME: ""
#HISPEED 00
#MEASUREHS 00
#01318:13001313
#01315:00130000
#01312:00000013
#0131b:00130000
#01310:41
#00118:0013
#00115:00130000
#00112:00000013
#0011b:000000000000000000000013
#0011a:24
#00312:0013
#0031b:001300001300
#00315:00130013
#00318:000000000013000000000013
#01514:14
#01512:00000014
#08112:000000000013000000000013
#08115:000013
#08118:1313
#0811b:00000013
#08518:00130013
#0851b:0013
#08515:000000000013000000000013
#08512:001300001300
#00215:13130000
#00218:001300000000
#0021b:000000000013000000000000
#00412:24130000
#00415:00001313
#00418:000013
#0041b:00130000
#01215:000000000000000000000013
#01214:00240000
#01218:0024
#01415:13
#01418:0013
#02012:00000013
#02018:000000000000000000000013
#02115:13
#02112:00130013
#02118:0013
#0211b:00130013
#02314:14
#02312:00000014
#02218:13
#02215:0013
#02212:13
#0221b:0013
#0241b:00000013
#02415:000000000000000000000013
#02518:13
#0251b:00130013
#02515:0013
#02512:00130013
#0271a:14
#02712:0014
#02714:002400000024
#02718:002424
#0281a:14
#02814:002400003400
#02818:002400
#02812:0024
#02915:130000000000000000000013
#0291b:13000013
#02912:00131300
#02918:00131300
#02910:41
#03018:13130000
#03012:001300000000
#03015:000000000013000000000000
#03112:130000000013000000000013
#0311b:13130013
#03115:001300001300
#03118:0013
#03212:00130000
#03218:240000131300
#03215:00000013
#0321b:00130000
#04018:000000240000000013000000
#04012:24000013
#0401b:000000000000000000000013
#04014:0024
#04017:24
#04115:13
#04118:0013
#04110:41
#04212:13130000
#04218:13130000
#04215:00001313
#0421b:00001313
#04318:14
#0431a:00000014
#04312:14
#04314:00000014
#0441b:00000013
#04415:000000000000000000000013
#04518:13
#04515:0013
#0461b:13130000
#04615:13130000
#04618:00001313
#04612:00001313
#04812:00000013
#04818:000000000000000000000013
#0491b:0013
#04912:13
#05012:1313
#05018:1313
#05015:00130013
#0501b:00130013
#0521b:00000013
#05215:000000000000000000000013
#05312:0013
#0531b:13
#0541b:1313
#05415:1313
#05418:00130013
#05412:00130013
#0571b:00001313
#05712:00001313
#05710:41
#05812:00001313
#0581b:00001313
#05919:0013
#05914:0013
#05912:00000023
#0591b:00000023
#0601b:0013
#06018:00000013
#06012:24000013
#06015:0013
#0601a:24
#0611b:13
#06118:0013
#06115:13
#06112:0013
#06412:001300000000
#06415:000000000013000000000000
#06418:00130000
#0641b:0013
#0691b:13
#06918:0013
#0691f:11
#07518:162424
#07512:0016
#07514:002400000024
#07618:162400
#07614:002400240000
#0791b:00130000
#07915:000000000013000000000000
#07918:000000000000130000000013
#07912:23000013
#0791f:21
#0801b:00000013
#08015:000000000000000000000013
#08014:2424
#08018:00240000
#08010:41
#08315:00130013
#08318:000000000013000000000013
#08312:1313
#0831b:001300001300
#0841b:001300000000
#08418:000000000013000000130000
#08412:2424
#08414:00240000
#08612:001300000000
#08615:000000000013000000000000
#0861a:2424
#08618:00240000
#09118:00131313
#09115:000000000013000013000013
#0911b:13
#09112:001300000000
#09518:000000000000000000000013
#09510:41
#09715:00130013
#0971b:00130000
#09712:0013
#09718:000013
#09912:000000000013000000000000
#09918:13001313
#09915:000000000000000013000013
#10115:000000130000000000000013
#1011b:001300000000
#10118:00001313
#10112:000013
#10212:001300000000
#10215:000000000013000000000000
#1021a:2424
#10218:00240000
#10315:000000000013000000000013
#10318:00130013
#10312:231300001300
#1031b:2313
#10518:000000000000130000000013
#10515:13000013
#10512:0013
#1051b:00000013
#10412:00000013
#10418:000000000000240000000013
#1041a:24
#10414:00240000
#11015:000000000013000000000013
#11012:240000240000000013000000
#1101a:24240000
#1101b:0023
#11018:00000023
#11312:001300001300
#11318:00130013
#11315:000000000013000000000013
#1131b:0013
#09618:00240013
#09614:0024
#09612:24
#10015:00000013
#1001a:24
#10012:00240000
#10018:0024
#02615:13
#02618:0013
#0261b:13
#02612:0013
#04714:14
#04712:00000014
#0471a:14
#04718:00000014
#05118:14
#0511a:00000014
#05112:14
#05114:00000014
#05512:14
#0551a:0014
#05518:002400000024
#05514:002424
#05612:14
#05618:002400003400
#05614:002400
#0561a:0024
#06312:13
#06315:0013
#06318:13
#0631b:0013
#06512:13
#06515:0013
#06518:13
#0651b:0013
#0681b:001300000000
#06818:000000000013000000000000
#06815:00130000
#06812:0013
#0671b:13
#06718:0013
#06715:13
#06712:0013
#07112:13
#07115:0013
#07318:13
#0731b:0013
#0891b:000000000013000000000013
#08918:000013
#08915:1313
#08912:00000013
#08712:00130000
#08718:000000000013000000000000
#08715:000000000000130000000013
#0871b:23000013
#08812:00000013
#08818:240000000000240000000013
#08814:00240000
#10715:00131313
#10718:000000000013000013000013
#10712:13
#1071b:001300000000
#06212:00130000
#06218:00130000
#06215:0013
#0621b:0013
#06615:00130000
#0661b:00130000
#06612:0013
#06618:0013
#0331a:000014
#03315:000014
#03318:24
#03312:24
#03512:000014
#03517:000014
#03514:24
#0351a:24
#0361a:240014
#03615:240014
#03712:240014
#03717:240014
#0391a:000014
#03915:000014
#03918:24
#03912:24
#01715:13001313
#01718:00130000
#0171b:00000013
#01712:00130000
#01918:14
#0191a:00000014
#01618:000000000000000000000013
#01615:00000013
#01818:13
#01815:0013
#00514:24
#0051a:24
#00512:000024
#00518:000024
#00714:24
#0071a:24
#00712:000024
#00718:000024
#01114:24
#0111a:24
#01112:000024
#01118:000024
#07012:00240000
#07016:0024
#0701a:00000024
#0721a:00240000
#07218:0024
#07214:00240000
#07212:0024
#07412:00240000
#0741a:0024
#07414:00000024
#07716:24
#08216:24240000
#08212:0024
#0821a:0024
#0921b:2323
#09212:00230023
#09218:00230023
#09215:0023
#0931b:23
#09315:23
#09412:24242525
#0941a:24240000
#09419:00002525
#0981a:24
#09816:00240000
#09812:0024
#10612:24
#10616:00240000
#1061a:0024
#1141a:24
#11418:00240000
#11416:0024
#11414:00000024
#11513:000000240024000000000000
#11519:000000240024000000000000
#0081a:000024
#00814:000024
#00912:000024
#00918:000024
#09016:24240000
#0901a:0024
#09012:0024
#10812:2323
#1081b:00230023
#10815:00230023
#10818:0023
#10912:23
#10918:23
#03417:24
#03412:24
#03815:24
#0381a:24
#1111b:23
#01554:54
#01552:00000024
#01455:53
#01458:0063
#02354:54
#02352:00000024
#02258:63
#02255:0053
#02252:63
#0225b:0053
#04155:53
#04158:0063
#04358:64
#0435a:00000024
#04352:64
#04354:00000024
#04558:63
#04555:0053
#0495b:0053
#04952:63
#05352:0063
#0535b:53
#0615b:53
#06158:0053
#06155:53
#06152:0053
#0695b:53
#06958:0053
#08458:00000053
#08452:0014
#09958:63
#09658:00140053
#09654:0014
#09652:14
#10055:00000053
#1005a:14
#10052:00140000
#10058:0014
#10555:63
#00452:14
#00554:14
#0055a:14
#00754:14
#0075a:14
#01154:14
#0115a:14
#01254:00140000
#01258:1414
#01252:14
#03358:14
#03352:14
#0335a:000054
#03355:000054
#03958:14
#03952:14
#0395a:000054
#03955:000054
#04058:00140000
#04054:0014
#04057:14
#04052:14
#08054:0014
#02852:0064
#02854:00000014
#03258:14
#03554:14
#0355a:14
#03552:000064
#03557:000064
#0605a:14
#06052:14
#07654:0064
#07652:00000014
#0935b:53
#09355:53
#1045a:14
#10454:00140000
#10458:0014
#07852:001c
#00658:14
#00652:14
#00858:14
#00852:14
#00954:14
#0095a:14
#01058:14
#01052:14
#02655:53
#02658:0063
#0265b:53
#02652:0063
#04754:54
#04752:00000024
#0475a:54
#04758:00000024
#05158:64
#0515a:00000024
#05152:64
#05154:00000024
#0565a:0054
#05658:00000014
#06352:63
#06355:0063
#06358:63
#0635b:0063
#06552:63
#06555:0063
#06558:63
#0655b:0063
#0675b:53
#06758:0053
#06755:53
#06752:0053
#07152:63
#07155:0063
#07358:63
#0735b:0063
#08158:53
#08955:63
#08858:0014
#10952:63
#10958:63
#09852:0014
#1065a:0014
#03457:14
#03452:14
#03655:140054
#0365a:140054
#03757:140064
#03752:140064
#03855:14
#0385a:14
#01958:64
#0195a:00000024
#01858:63
#01855:0053
#1115b:53
#002350:00001323
#005380:000014
#006380:24
#005321:000014
#006321:24
#007381:000014
#008381:24
#007320:000014
#008320:24
#008340:000014
#009340:24
#0083a1:000014
#0093a1:24
#009381:000014
#010381:24
#009320:000014
#010320:24
#011380:000014
#012380:24
#011321:000014
#012321:24
#014351:13
#014321:00230000
#014381:0013
#0143b1:00000023
#015341:14
#015321:00000054
#016341:0024
#018381:13
#0183b1:00230000
#018351:0013
#018321:00000023
#019381:14
#0193a1:00000054
#020381:0024
#022381:13
#0223b1:00230000
#022320:13
#022350:00230000
#022350:0013
#022320:00000023
#0223b1:0013
#022381:00000023
#023341:14
#023321:00000054
#024341:0024
#026351:13
#026321:00230000
#0263b0:13
#026380:00230000
#026380:0013
#0263b0:00000023
#026321:0013
#026351:00000023
#028321:0014
#028341:000000000000000034240000
#030381:00001323
#033351:000014
#034321:24
#0333a0:000014
#034370:24
#035370:000014
#0363a0:24
#035321:000014
#036351:24
#036351:000014
#037321:24
#0363a0:000014
#037370:24
#037370:000014
#0383a0:24
#037321:000014
#038351:24
#039351:000014
#040321:24
#0393a0:000014
#040370:24
#041350:13
#041320:00230000
#041380:0013
#0413b0:00000023
#043380:14
#0433a0:00000054
#044380:0024
#043321:14
#043341:00000054
#044321:0024
#045381:13
#0453b1:00230000
#045351:0013
#045321:00000023
#047341:14
#047321:00000054
#048341:0024
#0473a0:14
#047380:00000054
#0483a0:0024
#049320:13
#049350:00230000
#0493b0:0013
#049380:00000023
#051380:14
#0513a0:00000054
#052380:0024
#051321:14
#051341:00000054
#052321:0024
#0533b1:13
#053381:00230000
#053321:0013
#053351:00000023
#0563a1:0014
#056381:000000000000000034240000
#057351:13230000
#058381:13230000
#059351:13230000
#0613b1:13
#061381:0033
#0623b1:23
#061350:13
#061320:0033
#062350:23
#063320:13
#063350:0033
#064320:23
#063381:13
#0633b1:0033
#064381:23
#065321:13
#065351:0033
#066321:23
#065380:13
#0653b0:0033
#066380:23
#0673b0:13
#067380:0033
#0683b0:23
#067351:13
#067321:0033
#068351:23
#0693b1:130000000000000000000033
#069381:000000000033330000000000
#0703b1:23
#071321:130000000000000000000033
#071351:000000000033330000000000
#072321:23
#073381:130000000000000000000033
#0733b1:000000000033330000000000
#074381:23
#076341:0014
#076321:00000024
#077361:1434
#078341:38
#078321:002c
#081381:13
#0813b1:00230000
#084381:00000013
#0853b1:23
#089351:13
#089321:00230000
#0933b1:13
#093381:00000023
#093350:13
#093320:00000023
#0953b0:13
#095380:00230000
#095350:0013
#095320:00000023
#096380:00000013
#0973b0:23
#099380:13
#0993b0:00230000
#100350:00000013
#101320:23
#105350:13
#105320:00230000
#109320:13
#109350:00000023
#109381:13
#1093b1:00000023
#1113b1:13
#112381:0023
