This file was generated by Ched 2.7.0.0.
#TITLE ""
#ARTIST ""
#DESIGNER ""
#DIFFICULTY 0
#PLAYLEVEL
#SONGID ""
#WAVE ""
#WAVEOFFSET 0
#JACKET ""
#REQUEST "ticks_per_beat 480"
#00002: 4
#BPM01: 194
#00008: 01
#TIL00: ""
#VOLUME: ""
#HISPEED 00
#MEASUREHS 00
#0031b:13131313
#00315:001300001300
#00312:13131313
#00318:000000000013000000000000
#00316:000000000000000000000014
#00112:230000130000000000000013
#00117:00130013
#0011b:2313
#00116:0013
#00212:00131313
#0021b:13131300
#00218:001300000000
#00215:130000000013000000000000
#00412:240000130000000013130000
#00418:0013
#0041b:000000130000000013130000
#00415:0013
#0041a:24
#01219:000012
#01212:26002313
#0121b:000000230000000000130013
#01215:000012
#01216:00242400
#01415:13
#01418:000013130000000000000000
#0141b:000000000000000013130000
#01412:0013
#01618:00000013
#01615:000000000000000000000013
#01612:140000000024000000000000
#01613:00140014000000000000000000000000
#01614:000000140000000000000000000000002400000000000000
#0161a:130000000024000000000000
#01619:00130000
#0601b:000013130000000000000000
#06012:260000000013130000140000
#06017:0013
#0601a:00000014
#06016:00130000
#06312:130000000000000013130000
#0631b:000013130000130000000000
#06316:000000000013000000000000
#06317:000000000000000000000013
#06418:001300001300
#06419:130000000013000000000000
#06415:00000013
#06416:000000000000000000000014
#0641a:00130000
#0641b:0013
#06412:14141400
#07215:000000241300
#0721b:00000013
#07218:000000000000000000000013
#07212:00280013
#0721a:0024
#07216:28
#08012:24242413
#08018:000000000000000000000013
#0801b:00000013
#08015:000013
#0801a:14140000
#08016:0014001400000000
#08010:41
#08218:240000000014240000130000
#08215:000000000013
#08212:240000000000240000000013
#0821b:000013
#08214:000014240000000000000000
#0821a:00240000
#08416:00240013
#0841b:00000013
#08412:140000000014000000000000
#0841a:240014140000240000000000
#09712:130000000013130013000000
#0971b:000013130000000000000000
#09718:00000013
#09715:00000013
#09716:000000000000000000000014
#09816:000014000014000000000000
#09818:000000000000000013000013
#09812:24242413
#09815:000000000013
#0981b:00000013
#0981a:00242400
#11312:13130013
#1131b:130000000000130013130000
#11317:000013130000000000000000
#11316:000000000013130000000014
#00018:000000000000000000130013
#00015:000000000013
#00512:240000002616
#00518:000026
#0051a:24
#01315:000000130000000013000000
#01318:000013000000000000130000
#0131b:00131300
#01312:13000013
#01310:41
#01818:13
#01815:000013130000000000000000
#01812:000000000000000013130000
#0181b:0013
#02015:00000013
#02018:000000140000000000000000000000002400000000001300
#0201a:140000000024000000000000
#02019:00140014000000000000000000000000
#02013:13
#02014:00130000
#02012:000000000024000000000000
#0171b:13000013
#01712:13131300
#01715:000013000000000000130000
#01718:000000130000000013000000
#02215:13
#0221b:000013130000000000000000
#02218:000000000000000013130000
#02212:0013
#02418:00000013
#02415:000000000000000000000013
#02412:140000000024000000000000
#02413:00140014000000000000000000000000
#02414:000000140000000000000000000000002400000000000000
#02419:13
#0241a:000000130024000000000000
#02112:00130013
#02115:130013
#0211b:00130013
#02118:001300130000
#0261b:1313
#02612:000013130000000013130000
#0251b:00130013
#02518:130013
#02512:13130013
#02515:001300130000
#04216:13
#04217:000013130000000000000000
#0421b:000000000000000013130000
#04212:000000000013130000000014
#04418:00000013
#04412:140000000000000024000013
#04413:00140014000000000000000000000000
#04414:000000140000000000002400000000000000000000000000
#0441b:13
#04419:00130000
#0441a:000000000024000000000000
#05016:13
#05017:000013130000000000000000
#0501b:000000000000000013130000
#05012:000000000013130000000014
#05416:140014140000000000000000
#05412:000000000000000014140000
#0541a:000000000014140000000014
#04116:1313
#04117:001300001300
#04112:00130013
#0411b:000000000013000000000013
#04110:41
#05512:0023231c0000
#0551a:140000002424
#05516:002323000000
#05515:000000002424
#05612:1c0000002500000025000000000000140000000000000000
#05617:0000000000140000
#05618:000000002500000025000000003434003434000000000000
#0561a:0024
#05615:0024
#05613:000000000000000000000000003434003434000000000000
#05716:130000000013000000000023
#0571b:13
#05712:000023
#05710:41
#05817:000000000013000000000023
#0581b:130023
#05916:000000000013000000000000
#05912:130013
#05918:00000026
#06112:241300000000
#06115:000000160000130016000000
#06118:000000000013000000000000
#0611b:000000000000000000130013
#0611a:24
#06218:000013
#0621b:00000013
#06217:140000000000140000000013
#06212:14001413
#0621a:00140000
#06215:00140000
#0651b:001300000000
#06515:000000160013000016000000
#06518:0013
#06512:240000000000000000130013
#0651a:24
#06815:001300001313
#06818:000000000000001300000013
#06814:130000000013000000000000
#0681b:00000013
#06813:00130000
#06812:0013
#0681a:14140000
#07918:130000000013000000000013
#07915:00130000
#07912:240000000000000013130000
#0791f:21
#08115:130000000013000000000000
#08117:00130000
#0811b:130000000000000013130000
#08118:000000000000000000000014
#0831b:000000000013000000000013
#08312:001300001300
#08518:000000000013000000000013
#08515:001300001300
#08618:000000000000001300000013
#08615:000000000000000000140000000000001300000013000000
#0861a:140000240014140000240000
#08617:0014000000000000
#08612:240014140000240000000000
#08816:0014001400001300
#08817:000000000000000000000013
#0881b:00000013
#08812:140000140000000000000013
#0881a:24242400
#09015:00240013
#0901b:000000000000000000000013
#09018:000000000013
#09012:240000000014240013000000
#0901a:000014240000000000000000
#09017:2424
#08712:130000000013000000000013
#0871b:23130013
#08716:000013
#08717:0013
#08917:1313
#0891b:00130013
#08912:130000000013000000000014
#08916:001300001300
#0961b:00000013
#09617:0000000000000013
#09612:140000140000240000130013
#09616:0014001400000000
#0961a:24242400
#0991b:130000000013000000000000
#09912:13130000
#09917:000013
#0991a:000000000000000000000014
#1001b:00000013
#10016:000000000014240000130000
#10018:000014240000000000000000
#1001a:24
#10012:24242400
#10112:130000000000000000000014
#1011b:001300000000
#10116:000000130000000013000000
#10215:000000000000001300000013
#10218:000000001313
#10216:000014000014000000000000
#10212:24242424
#1021a:24242424
#10618:000000001313
#1061b:00000013
#10615:000000000000000000000013
#10612:00242413
#10616:000014000014000000000000
#1061a:24242400
#11014:000000000014001400000014
#11018:000000001414
#11012:24240028
#1101a:24240000
#11016:0028
#00718:000000002616
#00712:250026
#00719:25
#04015:000012
#0401b:000000230000000000130013
#04019:000012
#04012:25002313
#04016:00242400
#04017:27
#03319:000000000015
#03317:000017
#03312:240015
#0331a:24
#04517:1313
#04516:001300001300
#0451b:00130013
#04512:000000000013000000000013
#04617:13
#04616:000013130000000000000000
#04612:000000000000000013130000
#0461b:000000000013130000000000
#0461a:000000000000000000000014
#04815:00000013
#0481b:000000000000000000000013
#0481a:140024
#04819:00140014000000000000000000000000
#04818:000000140000000000002400000000000000000000000000
#04812:130000000024000000000000
#04814:00130000
#04916:1313
#04912:00130013
#04917:001300001300
#0491b:000000000013000000000013
#05216:00000014
#05212:140000000000000024000013
#05213:00140014000000000000000000000000
#05214:000000140000000000002400000000000000000000000000
#05217:13
#05219:00130000
#0521a:000000000024000000000000
#07314:14141414
#0731b:131300131300
#07318:000000130013000000130013
#07312:000000143400000000143400000000143400000000000000
#07415:001300131300
#07412:000000130013000000130013
#07418:14141414
#0741a:000000143400000000143400000000143400000000000000
#07512:1c00001c2424
#0751b:002323000000
#07517:002323002424
#07814:000014240000000000000000
#07818:000000000014240013001300
#07815:000000000000001300000013
#07812:24002424
#0781a:24240024
#09116:1313
#09112:00130013
#0911b:000000000013000000000013
#09117:001300001300
#09216:000000000000001414001414
#09212:2626
#09218:00260026
#09415:000000000000001300000000
#09418:000013
#09419:25250025
#09412:25252325
#0941b:0023
#0951b:1313
#09517:0013000000130000
#09512:23130000
#09516:0000001300001300
#0951a:000000000000000000000014
#09510:41
#10916:0014
#10912:2c003c003c003c003c003c00003c3c3c3c3c000000000000
#1141a:240000001400001400001400
#11416:000000000014000014000014
#11412:24262626
#0691a:14141414
#06915:000000000000130000000013
#06912:13130013
#06918:000000143400000000143400000000143400000000000000
#0691f:11
#07612:1c
#07614:0024
#07618:0024
#07619:002525000000
#07613:002525000000
#02712:0000001c2424
#02719:15
#0271b:002323000000
#02717:002323002424
#02812:1c24
#02815:0000000000140000
#0281a:0000000000140000
#02819:000000002500000025000000003434003434000000000000
#02813:002525000000
#02817:0024
#02814:000000000000000000000000003434003434000000000000
#00812:000000002616
#00818:260026
#00918:000000002616
#00912:260026
#01112:250000002616
#01119:25
#01118:000026
#01512:14141414
#01513:00140014001400140014001400140014
#01514:0014001400140014
#01519:00130000
#0151a:0013
#0151b:00000013
#0191a:14141414
#01919:00140014001400140014001400140014
#01918:0014001400140014
#01914:00130000
#01913:0013
#01912:00000013
#02312:14141414
#02313:00140014001400140014001400140014
#02314:0014001400140014
#0231a:00130000
#02319:0013
#02318:00000013
#04312:14141414
#04313:00140014001400140014001400140014
#04314:0014001400140014
#04319:00130013
#0431b:0013
#0471a:14141414
#04719:00140014001400140014001400140014
#04718:0014001400140014
#04714:00130013
#04712:0013
#05112:14141414
#05113:00140014001400140014001400140014
#05114:0014001400140014
#05119:00130013
#0511b:0013
#05317:1313
#0531b:00130013
#05316:001300001300
#05312:000000000013000000000013
#0671b:130000000000000013130000
#06712:000013130000130000000000
#06717:000000000013000000000000
#06716:000000000000000000000013
#06615:140000141300
#06612:00140013
#06616:000000000000000000000013
#0661b:00000013
#0661a:1414
#06617:00140000
#07118:000000000000130000000013
#0711b:13130013
#07112:14141414
#07114:000000143400000000143400000000143400000000000000
#1051b:130000000013130013000000
#10512:000013130000000000000000
#10515:00000013
#10518:00000013
#10516:000000000000000000000014
#10412:24242413
#10416:0014001400000013
#1041a:14142400
#1041b:000000000000000000130013
#10312:130000000013130000000014
#10316:0013000000130000
#1031b:230013130000000013000000
#10317:0000001300001300
#10712:130000000013000000000014
#1071b:13130000
#10716:000013
#03512:250000001715
#03519:250015
#03619:250000000015
#03617:000017
#03612:270015
#03712:250000001715
#03719:000015
#03717:27
#03919:250000000015
#03917:000017
#03912:250015
#03112:13131313
#03118:001300001300
#0311b:13131313
#03115:000000000013000000000000
#03116:000000000000000000000014
#0291b:230000130000000000000013
#02916:00130013
#02912:2313
#02917:0013
#02910:41
#0301b:00131313
#03012:13131300
#03015:001300000000
#03018:130000000013000000000000
#0321b:000000130000000013130000
#03215:0013
#03212:240000130000000013130000
#03218:0013
#0321a:24
#07012:2824
#07016:00280000
#07017:0024
#07018:000000000000000000000023
#07015:00000024
#0701a:00000024
#09316:24
#10816:24
#10815:00260000
#10814:0028
#10813:0000002a
#11512:260000260026000000000000
#11518:000000260026000000000000
#07716:0022
#07717:22
#07718:0022
#1111b:23
#00612:26
#01018:26
#03417:27
#03412:25
#03812:27
#03819:25
#01455:53
#01458:00630000
#0145b:00000053
#01452:0063
#06352:63
#0635b:0053
#08456:00000063
#08452:54
#0845a:00544400
#00252:00000013
#0025b:0063
#00257:00000013
#00552:140000000026
#00558:000056
#0055a:14
#01355:00230000
#01358:00000023
#0135b:0063
#01352:53
#00156:0053
#01858:63
#01855:00530000
#01852:00000063
#0185b:0053
#01752:0053
#01755:00000023
#0175b:63
#01758:00230000
#02255:53
#0225b:00630000
#02258:00000053
#02252:0063
#02152:00230000
#02155:63
#0215b:00000023
#02158:0053
#0265b:6353
#02652:00530063
#0255b:00230000
#02558:53
#02552:00000023
#02555:0063
#04256:53
#04257:00630000
#0425b:00000053
#04252:0063
#05056:53
#05057:00630000
#0505b:00000053
#05052:0063
#05456:64540000
#05452:00000064
#0545a:0054
#04156:5353
#04152:00630063
#05756:530000000000000000000013
#05752:000013
#0585b:530013
#05857:000000000000000000000013
#05952:63
#05958:00000016
#07958:53
#07955:00630000
#08155:63
#08157:00530000
#08752:63
#0875b:00530053
#08757:0053
#08957:5353
#0895b:00530053
#0965b:00000063
#09657:0000000000000023
#09652:64643400
#0965a:44444400
#09656:0024002400000000
#0975b:00530000
#09758:00000063
#09752:53
#0995b:53
#09952:00630000
#1005b:00000053
#10052:14141400
#10152:63
#10156:00630000
#00758:000000000026
#00752:150066
#00759:15
#03359:000000000025
#03352:140055
#0335a:14
#04557:6363
#0455b:00530053
#04657:63
#04656:00530000
#04652:00000063
#0465b:0053
#04956:5353
#04952:00630063
#04957:001300001300
#0495b:000000000013000000000013
#07354:54545454
#07352:0024002400240000
#0805a:54540000
#08056:0024002400000000
#08052:34343400
#09156:6363
#09152:00630063
#0865a:54440014
#08657:0024000000000000
#08652:34643400
#08655:0000002400000000
#0955b:5353
#09557:0023000000230000
#09552:00630000
#09556:0000002300005300
#08852:64640000
#08856:0024002400000000
#0885a:44444400
#10956:0024
#10952:5c
#0695a:54545454
#06958:0024002400240000
#06452:34343400
#00452:14
#0045a:14
#01152:150000000026
#01159:15
#01158:000056
#01256:00443400
#0125b:00430000
#01252:3633
#01258:46
#01652:240000000014000000000000
#01654:000000240000000000000000000000001400000000000000
#0165a:000000000014000000000000
#01653:00540054000000000000000000000000
#07052:3834
#07056:00480000
#07057:0034
#07055:00000044
#0705a:00000044
#07654:0064
#07658:0054
#07659:004545000000
#07653:004545000000
#07652:00000014
#0765a:00000014
#09252:1616
#09258:00160016
#10856:14
#10855:00160000
#10854:0018
#10853:0000001a
#11052:34340018
#1105a:44440000
#11056:0018
#02058:000000240000000000000000000000001400000000000000
#0205a:240000000014000000000000
#02059:00640064000000000000000000000000
#02052:000000000014000000000000
#02454:000000240000000000000000000000001400000000000000
#02452:240000000014000000000000
#02453:00540054000000000000000000000000
#0245a:000000000014000000000000
#04454:000000240000000000003400000000000000000000000000
#0445a:000000000034000000000000
#04452:240034
#04453:00540054000000000000000000000000
#05552:003333000000
#0555a:000000004444
#05556:003333000000
#05555:000000004444
#05652:000000003500000035000000000000240000000000000000
#05658:003535000000
#05657:0000000000240000
#0565a:00005444
#05655:00005444
#07255:0044
#0725a:0044
#07256:48
#07252:00380000
#02852:00006434
#02859:004545000000
#02853:004545000000
#02855:0000000000240000
#0285a:0000000000240000
#02857:00006434
#03559:150065
#03552:150000000025
#03959:150000000025
#03952:150055
#04056:00443400
#0405b:00430000
#04052:3533
#04057:47
#09459:15150000
#09452:15150015
#0945b:0013
#0755b:004343000000
#07552:000000003434
#07557:004343003434
#0275b:004343000000
#02752:000000003434
#02757:004343003434
#00852:360000000026
#00858:460056
#00958:460000000026
#00952:360066
#01552:24242424
#01554:0024002400240024
#01553:00540054005400540054005400540054
#0195a:24242424
#01959:00640064006400640064006400640064
#01958:0024002400240024
#02352:24242424
#02353:00540054005400540054005400540054
#02354:0024002400240024
#04352:24242424
#04353:00540054005400540054005400540054
#04354:0024002400240024
#0475a:24242424
#04759:00640064006400640064006400640064
#04758:0024002400240024
#0485a:240044
#04859:00640064000000000000000000000000
#04858:000000240000000000004400000000000000000000000000
#04852:000000000044000000000000
#05152:24242424
#05153:00540054005400540054005400540054
#05154:0024002400240024
#05252:240034
#05253:00540054000000000000000000000000
#05254:000000240000000000003400000000000000000000000000
#0525a:000000000034000000000000
#05357:6363
#0535b:00530053
#05356:001300001300
#05352:000000000013000000000013
#06052:16
#06252:1414
#0625a:00140000
#0675b:53
#06752:0063
#0665a:1414
#06652:00140000
#0685a:44440000
#10452:34343453
#10456:0024002400000023
#1045a:54544400
#10552:00630000
#10555:00000053
#1055b:63
#10352:6363
#10356:0023000000230000
#1035b:00530000
#10357:0000002300006300
#10752:63
#1075b:00530000
#1115b:23
#07152:64646464
#07154:0024002400240000
#07458:64646464
#0745a:0024002400240000
#08252:1414
#0825a:00140000
#11552:160000360036000000000000
#11558:000000460046000000000000
#00658:46
#00652:36
#01052:36
#01058:46
#09057:1414
#09055:00140000
#09852:1414
#0985a:00140000
#1065a:1414
#10652:00140000
#1145a:14
#03457:47
#03452:35
#03652:370055
#03659:450000000025
#03757:47
#03752:350000000025
#03759:000065
#03852:37
#03859:45
#0305b:00000013
#03052:0053
#03056:00000013
#02957:0063
#0325a:14
#03252:14
#001360:0013
#001320:00000023
#0023b0:0013
#002370:00000023
#005380:000016
#005320:000000000056
#006380:26
#007320:000016
#007380:000000000056
#008320:26
#008380:000016
#008320:000000000056
#009380:26
#009320:000016
#009380:000000000056
#010320:26
#011380:000016
#011320:000000000056
#012380:26
#013320:1323
#013350:00330000
#0133b1:0013
#013381:00000033
#0143b1:23
#014350:13
#014320:00230000
#014381:00130000
#0143b1:0023
#014320:0013
#014350:00000023
#0143b1:00000013
#015381:23
#015320:14545454
#015330:00540054005400540054005400540054
#015340:0054005400540054
#016320:54240000
#016330:00540054000000000000000000000000
#016340:0054000000000000
#0173b0:1323
#017380:00330000
#017321:0013
#017351:00000033
#018321:23
#018380:13
#0183b0:00230000
#018351:00130000
#018321:0023
#0183b0:0013
#018380:00000023
#018321:00000013
#019351:23
#0193a0:14545454
#019390:00540054005400540054005400540054
#019380:0054005400540054
#0203a0:54240000
#020390:00540054000000000000000000000000
#020380:0054000000000000
#021350:1323
#021320:00330000
#021381:0013
#0213b1:00000033
#022381:23
#022350:13
#022320:00230000
#0223b1:00130000
#022381:0023
#022320:0013
#022350:00000023
#022381:00000013
#0233b1:23
#023320:14545454
#023330:00540054005400540054005400540054
#023340:0054005400540054
#024320:54240000
#024330:00540054000000000000000000000000
#024340:0054000000000000
#025380:1323
#0253b0:00330000
#025351:0013
#025321:00000033
#026351:23
#0263b0:13
#026370:00230000
#026321:00130000
#026361:0023
#0263b0:0013
#026370:00000023
#026321:00000013
#027361:23
#028321:00001424
#028341:000000000000000000000000003434003434000000000000
#028351:0000000000340000
#028370:00001424
#028390:000000000000000000000000003434003434000000000000
#0283a0:0000000000340000
#029370:0013
#0293b0:00000023
#030320:0013
#030360:00000023
#033320:000015
#033390:000000000055
#034320:25
#035390:000015
#035320:000000000055
#036390:25
#036320:000015
#036390:000000000055
#037320:25
#037390:000015
#037320:000000000055
#038390:25
#039320:000015
#039390:000000000055
#040320:25
#041360:13
#041320:002300000000
#041320:00130000
#041360:000000000023000000000000
#041360:0013
#041320:000023
#041320:00000013
#041360:000000000000000000000023
#042360:13
#042320:0053230000000000
#042371:00130000
#0423b1:0000005323000000
#042320:0013
#042360:0000000000532300
#0423b1:00000013
#042371:0000000000000053
#043371:23
#043320:14545454
#043330:00540054005400540054005400540054
#043340:0054005400540054
#044320:54240000
#044330:00540054000000000000000000000000
#044340:0054000000000000
#045370:13
#0453b0:002300000000
#0453b0:00130000
#045370:000000000023000000000000
#045370:0013
#0453b0:000023
#0453b0:00000013
#045370:000000000000000000000023
#046370:13
#0463b0:0053230000000000
#046361:00130000
#046321:0000005323000000
#0463b0:0013
#046370:0000000000532300
#046321:00000013
#046361:0000000000000053
#047361:23
#0473a0:14545454
#047390:00540054005400540054005400540054
#047380:0054005400540054
#0483a0:54240000
#048390:00540054000000000000000000000000
#048380:0054000000000000
#049360:13
#049320:002300000000
#049320:00130000
#049360:000000000023000000000000
#049360:0013
#049320:000023
#049320:00000013
#049360:000000000000000000000023
#050360:13
#050320:0053230000000000
#050371:00130000
#0503b1:0000005323000000
#050320:0013
#050360:0000000000532300
#0503b1:00000013
#050371:0000000000000053
#051371:23
#051320:14545454
#051330:00540054005400540054005400540054
#051340:0054005400540054
#052320:54240000
#052330:00540054000000000000000000000000
#052340:0054000000000000
#053370:13
#0533b0:002300000000
#0533b0:00130000
#053370:000000000023000000000000
#053370:0013
#0533b0:000023
#0533b0:00000013
#053370:000000000000000000000023
#054360:14
#0543a0:0054240000000000
#054361:00140000
#054321:0000005424000000
#0543a0:0014
#054360:0000000000542400
#054321:00000014
#054361:0000000000000054
#055361:24
#0563a1:00001424
#056381:000000000000000000000000003434003434000000000000
#056371:0000000000340000
#056350:00001424
#056330:000000000000000000000000003434003434000000000000
#056320:0000000000340000
#057360:13
#057320:00230000
#057371:00130000
#0573b1:000000000023000000000000
#0573b1:0013
#057371:000023
#057371:00000013
#0573b1:000000000000000000000023
#0583b1:13
#058381:00230000
#058350:00130000
#058320:000000000023000000000000
#058320:0013
#058360:000023
#058360:00000013
#058320:000000000000000000000023
#059320:13
#059350:00230000
#059381:00130000
#0593b1:000000000023000000000000
#0593b1:0013
#059371:000023
#063321:13
#063361:002300000000
#0633b1:0013
#063371:000023
#0673b1:13
#067371:002300000000
#067321:0013
#067361:000023
#0693a1:14343434
#069381:000000543400000000543400000000543400000000002400
#071321:14343434
#071341:000000543400000000543400000000543400000000002400
#073341:14343434
#073321:000000543400000000543400000000543400000000002400
#074381:14343434
#0743a1:000000543400000000543400000000543400000000002400
#076341:0014
#076321:00000024
#076380:0014
#0763a0:00000024
#077370:12
#077340:00280000
#077360:0012
#077320:00000026
#077381:00001226
#079381:13
#0793b1:00230000
#079350:00130000
#079320:000000000023000000000000
#079380:000000132300
#0803a0:14342400
#080360:0054005400000000
#081350:13
#081320:00230000
#081371:00130000
#0813b1:000000000023000000000000
#081351:000000132300
#083381:132300000000
#083351:000000130023000000000000
#083381:000000132300
#083351:000000000000000000130023
#084321:14
#084361:002400000000
#0843a1:00140000
#084361:000000000024000000000000
#084361:00000013
#085321:23
#0853b0:132300000000
#085320:000000130023000000000000
#0853b0:000000132300
#085320:000000000000000000130023
#0863a0:14240000
#086370:0054000000000000
#086321:00142400
#086351:0000005400000000
#087321:13
#087361:00230000
#0873b0:00130000
#087370:000000000023000000000000
#087370:0013
#0873b0:000023
#0873b0:00000013
#087370:000000000000000000000023
#088320:14342400
#088360:0054005400000000
#089370:13
#0893b0:002300000000
#0893b0:00130000
#089370:000000000023000000000000
#089370:0013
#0893b0:000023
#0893b0:00000013
#089370:000000000000000000000023
#091360:13
#091320:002300000000
#091320:00130000
#091360:000000000023000000000000
#091360:0013
#091320:000023
#091320:00000013
#091360:000000000000000000000023
#093360:14
#093320:0000002c
#0953b0:13230000
#095370:0053000000000000
#095321:00132300
#095361:0000005300000000
#0953b0:00001323
#095370:0000000000530000
#095361:00000013
#095321:000000000000000000000023
#096321:14342400
#096361:0054005400000000
#0963b1:00000013
#096371:0000000000000053
#0973b1:23
#097320:13
#097360:00230000
#0973b1:00130000
#097371:0023
#097381:00000013
#0983b1:23
#0993b1:13
#099371:00230000
#099320:00130000
#099360:000000000023000000000000
#099320:000000132300
#099360:000000000000000000130023
#1003b0:00000013
#101370:23
#101321:13
#101361:002300000000
#101361:00130000
#101321:0023
#1013b0:000000132300
#101370:000000000000000000130023
#103320:13230000
#103360:0053000000000000
#1033b1:00132300
#103371:0000005300000000
#103320:00001323
#103360:0000000000530000
#103371:00000013
#1033b1:000000000000000000000023
#1043a1:14342400
#104361:0054005400000000
#104321:00000013
#104361:0000000000000053
#105321:23
#1053b0:13
#105370:00230000
#105321:00130000
#105361:0023
#105351:00000013
#106321:23
#107321:13
#107361:00230000
#1073b0:00130000
#107370:000000000023000000000000
#1073b0:000000132300
#107370:000000000000000000130023
#109320:1c003c003c003c003c003c00003c3c3c3c3c2c0000000000
#109360:0034
#1113b0:13
#112320:0000002c
