This file was generated by Ched 2.7.0.0.
#TITLE ""
#ARTIST ""
#DESIGNER ""
#DIFFICULTY 0
#PLAYLEVEL
#SONGID ""
#WAVE ""
#WAVEOFFSET 0
#JACKET ""
#REQUEST "ticks_per_beat 480"
#00002: 4
#BPM01: 194
#00008: 01
#TIL00: ""
#VOLUME: ""
#HISPEED 00
#MEASUREHS 00
#0011a:1414
#00318:1414
#00214:1414
#0131a:1414
#01314:00140014
#01310:41
#01412:00140014
#01418:1414
#01712:1414
#01718:00140014
#0211a:14
#02114:00140000
#02118:0014
#02112:00000014
#0221a:14
#02214:00140000
#02218:0014
#02212:00000014
#0291a:1414
#02914:00140014
#02910:41
#03018:14141400
#03112:1414
#03118:00140014
#08912:14
#08918:00140000
#08914:0014
#0891a:00000014
#09012:14141400
#0911a:14
#09118:0014
#09114:00140000
#09112:00000014
#0921a:14140000
#09214:00001414
#01518:14
#01814:1414
#0181a:00140014
#01914:14
#02318:14
#02512:1414
#02518:00140014
#02614:1414
#0261a:00140014
#02714:14
#03212:14
#04112:1414
#04118:00140014
#04110:41
#0421a:00140014
#04214:1414
#0451a:1414
#04514:00140014
#04912:14
#04918:00140000
#04914:0014
#0491a:00000014
#05012:14
#05018:00140000
#05014:0014
#0501a:00000014
#04314:14
#04312:00000014
#04618:1414
#04612:00140014
#04718:14
#0471a:00000014
#05114:14
#05112:00000014
#0531a:1414
#05314:00140014
#05418:1414
#05412:00140014
#05518:14
#0551a:00000014
#05712:1414
#05718:00140014
#05710:41
#05814:1414
#0581a:00140014
#05912:14
#05918:00140000
#05914:0014
#0591a:00000014
#06012:14
#0621a:14141400
#06414:14141400
#06618:14141400
#06812:14141400
#06918:14
#0691f:11
#07012:14
#07018:00140000
#07014:0014
#0701a:00000014
#07114:14
#07212:14141400
#07318:14
#07412:14
#07418:00140000
#07414:0014
#0741a:00000014
#07514:14
#0791a:14
#07914:00140000
#07918:0014
#07912:00000014
#0791f:21
#08112:14
#08118:00140000
#08114:0014
#0811a:00000014
#08212:14141400
#0831a:14
#08314:00140000
#08318:0014
#08312:00000014
#08512:14
#08518:00140000
#08514:0014
#0851a:00000014
#0871a:14
#08714:00140000
#08718:0014
#08712:00000014
#1051a:14
#10514:00140000
#10518:0014
#10512:00000014
#1061a:14141400
#10712:14
#10714:0014
#10718:00140000
#1071a:00000014
#09512:14
#09518:00140000
#09514:0014
#0951a:00000014
#09510:41
#0971a:14
#09714:00140000
#09718:0014
#09712:00000014
#0981a:14141400
#09912:14
#09918:00140000
#09914:0014
#0991a:00000014
#1011a:14
#10114:00140000
#10118:0014
#10112:00000014
#10312:14
#10318:00140000
#10314:0014
#1031a:00000014
#11412:14
#11418:00140000
#11414:0014
#1141a:00000014
#09318:0014
#0931a:24
#10914:0014
#10912:24
#11519:00240000
#11513:00240000
#00412:24
#00514:24
#0051a:24
#00612:24
#00618:24
#00714:24
#0071a:24
#00812:24
#00818:24
#00914:24
#0091a:24
#01012:24
#01018:24
#01114:24
#0111a:24
#01214:2424
#01218:00240000
#03318:24
#03312:24
#0341a:24
#03414:24
#03518:24
#03512:24
#0361a:24
#03614:24
#03718:24
#03712:24
#0381a:24
#03814:24
#03918:24
#03912:24
#04014:00240000
#04018:2424
#07718:24
#07712:0024
#0781a:24
#07814:0024
#0801a:24242400
#08010:41
#0881a:24242400
#09612:24242400
#10412:24242400
#10812:24240000
#10818:00002424
#11018:0026
#11012:00000026
#11118:26
#01558:54
#01954:54
#02358:54
#02754:54
#03252:14
#04354:64
#04352:00000024
#04758:64
#0475a:00000024
#05154:64
#05152:00000024
#05558:64
#0555a:00000024
#06052:14
#06958:54
#07154:64
#07358:54
#07554:64
#11559:00140000
#11553:00140000
#00452:14
#07652:14
#09358:0024
#0935a:54
#10952:54
#10954:0024
#015380:14
#0163a0:0024
#019340:14
#020320:0024
#023380:14
#0243a0:0024
#027340:14
#028320:0024
#043340:14
#043320:00000054
#044340:0024
#047380:14
#0473a0:00000054
#048380:0024
#051340:14
#051320:00000054
#052340:0024
#055380:14
#0553a0:00000054
#056380:0024
#0613a0:1424
#063340:1424
#065380:1424
#067320:1424
#069380:14
#0693a0:0024
#071340:14
#071320:0024
#073380:14
#0733a0:0024
#075340:14
#076320:24
#0843a0:14
#084390:00340000
#084380:0024
#086320:14
#086330:00340000
#086340:0024
#0933a0:14
#093380:0054
#0943a0:24
#100340:14
#100330:00340000
#100320:0024
#102380:14
#102390:00340000
#1023a0:0024
#109320:14
#109340:0054
#110320:24
#111380:16
#113380:26
