This file was generated by Ched 2.7.0.0.
#TITLE ""
#ARTIST ""
#DESIGNER ""
#DIFFICULTY 0
#PLAYLEVEL
#SONGID ""
#WAVE ""
#WAVEOFFSET 0
#JACKET ""
#REQUEST "ticks_per_beat 480"
#00002: 4
#BPM01: 180
#00008: 01
#TIL00: ""
#VOLUME: ""
#HISPEED 00
#MEASUREHS 00
#00314:0014
#0041a:00140000
#00514:14
#00518:00000014
#00612:0014
#00812:14
#0081a:00000014
#00810:00000041
#00718:00140000
#00914:0014
#01018:00140000
#01112:14
#0111a:00000014
#01214:0014
#01318:00140000
#01412:14
#0141a:00000024
#0021a:00000014
#0151a:0014
#01714:14
#01718:00000014
#01710:00000041
#01614:00140000
#01818:0014
#01912:00140000
#02012:14
#0201a:00000014
#0211a:0014
#02314:14
#02318:00000014
#02214:00140000
#02418:0014
#02618:00000014
#02610:00000041
#02714:0014
#02818:00140000
#02914:14
#0291a:00000014
#0291f:00000011
#03012:0014
#0311a:00140000
#03212:14
#03218:00000014
#03314:0014
#0341a:00140000
#03512:14
#03518:00000014
#03614:0014
#03912:16
#03910:00000041
#04018:00161600
#04112:00000016
#04212:16
#04318:00161600
#04518:16
#04618:00160000
#04612:0016
#05118:0014
#05212:00140000
#05210:00410000
#05318:14
#05314:00000014
#0541a:0014
#05514:00140000
#0561a:14
#05612:00000014
#05718:0014
#05814:00140000
#0591a:14
#05912:00000014
#06018:0014
#06114:00140000
#06110:00410000
#0621a:14
#0681a:00000014
#0691a:0014
#07012:00140000
#07112:14
#07118:00000014
#07218:0014
#07314:00140000
#07414:14
#03812:00000026
#0381f:00000021
#04412:00000026
#05012:00000024
#04814:36360000
#04916:00003636
#025320:00140000
#026320:24
#0373a0:00140000
#0383a0:24
#039320:00162600
#040380:00000016
#041380:26
#042320:00162600
#043380:00000016
#044380:26
#045320:00162600
#046380:00000016
#047380:26
#047320:00000016
#048340:36362600
#049380:00160000
#049360:00003636
#050360:26
#062320:00000014
#063340:0024
#064380:00140000
#0653a0:24
#0653a0:00000014
#066380:0024
#067340:00140000
#068320:24
#0743a0:00000014
#0753a0:0024
#076320:00140000
#077320:24
#077380:00000014
#078380:0024
#079340:00140000
#080340:24
#0803a0:00000014
#0813a0:0024
#082320:00140000
#083320:24
#083380:00000014
#084380:0024
#085340:00143434
#086340:24
