This file was generated by Ched 2.7.0.0.
#TITLE ""
#ARTIST ""
#DESIGNER ""
#DIFFICULTY 0
#PLAYLEVEL
#SONGID ""
#WAVE ""
#WAVEOFFSET 0
#JACKET ""
#REQUEST "ticks_per_beat 480"
#00002: 4
#BPM01: 180
#00008: 01
#TIL00: ""
#VOLUME: ""
#HISPEED 00
#MEASUREHS 00
#00318:1313
#00312:0013130000001300
#0031b:00130000
#00315:0000000000130000
#00415:1300000000130000
#0041b:00130013
#00418:0013
#00412:00000013
#0051b:13000013
#00515:0013000013000000
#00512:00130000
#00618:1313
#00615:0013130000130000
#0061b:00130000
#00612:00000013
#00715:1300000000130000
#00718:0013
#00712:00000013
#0071b:00130013
#0081b:13
#00815:0013000013000000
#00812:00130023
#00810:00000041
#00915:1313
#0091b:0013130000001300
#00912:00130000
#00918:0000000000130000
#01018:1300000000130000
#01012:00130013
#01015:0013
#0101b:00000013
#01112:13000013
#01118:0013000013000000
#0111b:00130000
#01215:1313
#01218:0013130000130000
#01212:00130000
#0121b:00000013
#01318:1300000000130000
#01315:0013
#0131b:00000013
#01312:00130013
#01412:13
#01418:0013000013000000
#0141b:00130023
#01612:1313
#01616:00130000
#01618:0000000000130000
#01615:00000013
#0161b:0000000000000013
#01517:13
#01512:0013000000000000
#01717:00130000
#0171b:0000000013000013
#01712:00000013
#01710:00000041
#01816:13
#0181b:0013000000000000
#01812:00130000
#01817:0000001300000000
#01912:0013
#0191b:0000000000130000
#01915:00000013
#01918:0000000000000013
#0201b:00130000
#02017:0000000013000013
#02012:00000013
#02116:00130000
#02114:13
#0211b:0000001300000000
#02119:0013000000000000
#02216:1313
#02212:00130013
#0221b:0000000000130013
#0231b:0013
#02312:00130013
#02316:13
#02317:00130000
#0241b:00130000
#02416:0000001300000000
#0251b:00000013
#02516:0000000000000013
#02517:0013
#0261b:13
#02617:0013
#02619:00130000
#02612:00002323
#02616:23
#02614:00230000
#02610:00000041
#0281b:1313
#02815:0000000000130000
#02818:00000013
#02812:0000000000000013
#02817:00230000
#02716:13
#0271b:0013000000000000
#02916:00130000
#02912:0000000013000013
#0291f:00000011
#0291b:00000023
#03017:13
#03012:0013000000000000
#0301b:00130000
#03016:0000001300000000
#0311b:0013
#03112:0000000000130000
#03118:00000013
#03115:0000000000000013
#03212:00130000
#03216:0000000013000013
#0321b:00000023
#03317:00130000
#03319:13
#03312:0000001300000000
#03314:0013000000000000
#03417:1313
#0341b:00230013
#03412:0000000000130013
#03516:00130000
#03512:0013
#03517:13
#0351b:00130023
#03612:00130000
#03617:0000001300000000
#03712:00000013
#03716:0013
#03717:0000000000000013
#03812:13000024
#03816:0013
#03814:00130000
#0381a:00000024
#03817:23
#03819:00230000
#0381b:0023
#0381f:00000021
#03916:00130000
#03912:1300000000130013
#0391b:0013000013000000
#03917:00000013
#03910:00000041
#0401b:1300000013000033
#04012:0000130000130000
#04017:00000013
#04016:0000003300000000
#04116:0014
#04112:16000024
#04118:00160000
#0411a:00000024
#04517:00130000
#0451b:1300000000130013
#04512:0013000013000000
#04516:00000013
#04612:1300000013000033
#0461b:0000130000130000
#04616:00000013
#04617:0000003300000000
#04716:0014
#04718:16
#04712:00160024
#0471a:00000024
#04216:0013130000140014
#0421b:13130013
#04212:0013
#0431b:00130013
#04312:1313
#04317:0013
#04316:0000000000000013
#0441b:13
#04417:00130000
#04416:13
#04412:00130024
#0441a:00000024
#04812:13130000
#04817:0013130000000000
#04816:00000013
#04916:0013
#04917:00130000
#0491b:0013
#04912:00230000
#05118:13
#05115:0013000013000000
#05112:00130013
#0511b:0000130000130000
#05215:1300000000130000
#05218:00130013
#0521b:0013
#05212:00000013
#05210:00410000
#05312:1313
#0531b:0013000000001300
#05315:00130000
#05418:1300000000130000
#05415:0013000013000000
#0541b:00130000
#05412:00130013
#05515:1300000000130000
#0551b:0013
#05512:00000013
#05518:00130013
#05612:13001323
#05618:0013000000000000
#05615:00130000
#05012:1414
#05017:1313000013000000
#0501a:00140000
#05016:00130000
#0501b:00000023
#05715:13
#05718:0013000013000000
#0571b:00130013
#05712:0000130000130000
#05818:1300000000130000
#05815:00130013
#05812:0013
#0581b:00000013
#0591b:1313
#05912:0013000000001300
#05918:00130000
#06015:1300000000130000
#06018:0013000013000000
#06012:00130000
#0601b:00130013
#06118:1300000000130000
#06112:0013
#0611b:00000013
#06115:00130013
#06110:00410000
#0621b:1313
#06215:0013000000000000
#06218:00130000
#06212:00000023
#0631b:0013000000000000
#06312:0013
#06316:24240024
#0641b:0000000000130000
#06416:24002424
#06512:13
#0651b:00000013
#06516:00242400
#06612:0013000000000000
#0661b:0013
#06616:24240024
#06712:0000000000130000
#06716:24002424
#0681b:13
#06816:00242400
#06812:00000023
#0691b:0013000000000000
#06916:14140014
#06912:0013
#0701b:0000000000130000
#07016:00001414
#07112:1313
#07116:00140000
#0711b:00000013
#07212:0013000000000000
#07216:14140014
#0721b:0013
#07312:0000000000130000
#07316:00001414
#0741b:1313
#07416:00140000
#0751c:00000012
#07518:12120000
#0761c:12001212
#07812:00000012
#07816:12120000
#07912:12001212
#07718:00121200
#08016:00121200
#08012:00000012
#08018:00000012
#08118:12120000
#08114:0012
#0811a:00001212
#0821a:12
#08216:00121212
#0821c:00120000
#08314:12121200
#0831a:12
#08312:00000012
#08319:00000012
#0841a:12
#0841b:00120000
#0841c:0012
#08415:0012
#08414:00000012
#08513:12
#08512:00120012
#08519:00120012
#08515:0012
#0851c:0012
#08615:12
#0861c:12
#0011c:00220000
#00212:22
#0021b:00000023
#0035b:00130000
#00455:13
#0045b:00000013
#00555:0013
#0065b:00130000
#00755:13
#0075b:00000013
#00855:0013
#00952:00130000
#01058:13
#01052:00000013
#01158:0013
#01252:00130000
#01358:13
#01352:00000013
#01458:0013
#03956:00530000
#0405b:53
#04052:00630000
#04057:00000053
#04152:36
#04158:00460000
#04557:00630000
#04652:63
#0465b:00530000
#04656:00000063
#04758:46
#04752:00360000
#04352:63
#0425b:00530000
#0445b:53
#04457:00230000
#04456:53
#04452:00230014
#0445a:00000014
#04852:00630000
#04856:00000053
#04956:0023
#04957:00630000
#0495b:0023
#04952:00630000
#0515b:00130000
#05152:00000013
#05255:13
#05258:00000013
#05352:0013
#05355:00130000
#0545b:00130000
#05452:00000013
#05555:13
#05558:00000013
#05652:0013
#05655:00130000
#05052:1414
#0505a:00140000
#05752:00130000
#0575b:00000013
#05858:13
#05855:00000013
#0595b:0013
#05958:00130000
#06052:00130000
#0605b:00000013
#06158:13
#06155:00000013
#0625b:0013
#06258:00130000
#06956:00140014
#07056:00000014
#0705b:13
#07156:00140000
#07152:0013
#0715b:0013
#07256:00140014
#07356:00000014
#07352:13
#07456:00140000
#0745b:0013
#07452:0013
#02652:00000013
#03852:00000014
#0385a:00000014
#06852:00000013
#02356:53
#02352:00230000
#0355b:00230000
#03557:53
#002350:00000013
#003350:23
#0033b0:00000013
#0043b0:23
#004320:00132300
#005380:00132300
#005320:00000013
#006320:23
#006380:00000013
#007380:23
#007350:00132300
#0083b0:00132300
#008380:00000013
#009380:23
#009320:00000013
#010320:23
#0103b0:00132300
#011350:00132300
#0113b0:00000013
#0123b0:23
#012350:00000013
#013350:23
#013380:00132300
#014320:00132300
#014360:00000013
#015320:23
#015370:00130000
#0153b0:0023
#015321:0013
#015361:00000023
#0153b0:00000013
#015390:0000000000000033
#016370:23
#0163b0:00132300
#017320:13332300
#018320:0013
#018360:00000023
#0183b1:00000013
#0193b1:23
#019360:13
#019320:00230000
#019371:00132300
#020321:13332300
#021361:0013
#021321:00000023
#021370:00000013
#0223b0:23
#022370:00130000
#0223b0:0023
#023360:1323
#023320:00330000
#023370:00000013
#0243b0:23
#024361:13230000
#0243b1:0013
#024371:00000023
#024320:00000013
#025360:23
#0253b1:13230000
#025360:00130000
#025320:00003323
#026370:00000013
#0273b0:23
#027360:00130000
#027320:0023
#0273b1:0013
#027371:00000023
#027320:00000013
#027340:0000000000000033
#028360:23
#028320:00132300
#0293b0:13332300
#0303b0:0013
#030370:00000023
#030321:00000013
#031321:23
#031370:13
#0313b0:00230000
#031361:00132300
#0323b1:13332300
#033371:0013
#0333b1:00000023
#033360:00000013
#034320:23
#034360:00130000
#034320:0023
#035370:1323
#0353b0:00330000
#035360:00000013
#036320:23
#036371:13230000
#036321:0013
#036361:00000023
#0363b0:00000013
#037370:23
#037321:13230000
#037370:00130000
#0373b0:00003323
#039360:00130000
#039320:0023
#0403b0:13
#040370:00230000
#040321:00130000
#040361:0000003323000000
#040371:00000013
#0403b1:0000000000000033
#0413b1:23
#0423b1:00130000
#042371:0023
#043321:13
#043361:00230000
#0443b1:1323
#044371:00330000
#044360:1323
#044320:00330000
#045370:00130000
#0453b0:0023
#046320:13
#046360:00230000
#0463b1:00130000
#046371:0000003323000000
#046361:00000013
#046321:0000000000000033
#047321:23
#048321:00130000
#048361:0023
#0483b0:00001323
#048361:00000013
#049321:23
#049370:13330023
#0493b0:0033
#049321:00130023
#049361:0033
#050351:00000013
#051321:23
#0513b1:00000013
#052381:23
#052321:00130000
#052351:0023
#053381:00130000
#0533b1:0023
#053321:00000013
#054351:23
#054381:00000013
#0553b1:23
#055351:00130000
#055321:0023
#0563b1:00130000
#056381:0023
#056381:00000013
#0573b1:23
#057321:00000013
#058351:23
#0583b1:00130000
#058381:0023
#059351:00130000
#059321:0023
#0593b1:00000013
#060381:23
#060351:00000013
#061321:23
#061381:00130000
#0613b1:0023
#062321:00130000
#062351:0023
#0623b1:00000013
#0633b1:23
#0633b1:00001323
#064321:13230000
#0643b0:00132300
#0653b0:13332300
#065320:00000013
#066320:23
#066320:00001323
#0673b0:13230000
#067321:00132300
#068321:13332300
#068371:00000013
#0693b1:23
#069371:0013
#0693b1:00000033
#0703b1:23
#070320:13230000
#070371:00130000
#0703b1:0023
#071371:13
#0713b1:00332300
#071361:00000013
#072321:23
#072361:0013
#072321:00000033
#073321:23
#0733b0:13230000
#073361:00130000
#073321:0023
#074361:13
#074321:00332300
#074321:00000012
#075321:00320000
#075361:0032
#076361:22
#076321:00120032
#077361:3222
#0773c1:00000012
#0783c1:00320000
#078381:0032
#079381:22
#0793c1:00120032
#080381:3222
