This file was generated by Ched 2.7.0.0.
#TITLE ""
#ARTIST ""
#DESIGNER ""
#DIFFICULTY 0
#PLAYLEVEL
#SONGID ""
#WAVE ""
#WAVEOFFSET 0
#JACKET ""
#REQUEST "ticks_per_beat 480"
#00002: 4
#BPM01: 180
#00008: 01
#TIL00: ""
#VOLUME: ""
#HISPEED 00
#MEASUREHS 00
#00315:13130013
#0031b:0013000000001300
#00318:0013
#00415:1300000000130000
#0041b:13
#00412:00130000
#00418:00001313
#00518:00000013
#00512:13
#00515:00131300
#0051b:00131300
#00618:0013000013001300
#00612:13130013
#00715:1300000000130000
#0071b:13
#00712:00130000
#00718:00001313
#00812:1313
#00815:00130023
#0081b:00130000
#00818:0013
#00810:00000041
#0141b:1313
#01418:00130023
#01412:00130000
#01415:0013
#01515:13000013
#01518:0013
#01512:0033000000000000
#01712:13
#0171b:00000013
#01715:0000000000000013
#01710:00000041
#0161b:00130000
#01612:1300000000330033
#0181a:13
#01814:0013000000000000
#01813:0000001300000000
#01819:00130000
#0181b:00000013
#01818:0013
#01915:0000130000000013
#01918:00000013
#0201b:13
#02012:00000013
#02018:0000000000000013
#0221b:00130013
#02215:0000000000130000
#02212:0000000000000013
#02318:13
#0231b:00130000
#02315:00000013
#0241b:13
#02412:00130013
#02418:0000001300000000
#02415:0013
#02518:00130000
#02512:00130000
#0251b:00003333
#02515:00003333
#02718:13000013
#02715:0013
#0271b:0033000000000000
#0291b:13
#02912:00000013
#02918:0000000000000013
#0291f:00000011
#02812:00130000
#0281b:1300000000330033
#03013:13
#03019:0013000000000000
#0301a:0000001300000000
#03014:00130000
#03012:00000013
#03015:0013
#03118:0000130000000013
#03115:00000013
#03212:13
#0321b:00000013
#03215:0000000000000013
#03412:00130013
#03418:0000000000130000
#0341b:0000000000000013
#03515:13
#03512:00130000
#03518:00000013
#03612:13
#0361b:00130013
#03615:0000001300000000
#03618:0013
#03715:00130000
#0371b:00130000
#03712:00003333
#03718:00003333
#03915:13130000
#03918:0013000000001300
#0391b:0013
#03912:0000000000130000
#03910:00000041
#04012:0013
#04115:13
#04112:00130000
#04118:00130000
#0411b:13000023
#04212:13
#04215:00130000
#04218:0013000000000000
#04412:13000023
#04416:00130000
#0441b:00000023
#04315:00130013
#0431b:0000130000000013
#04312:0013
#04318:0013
#04518:13130000
#04515:0013000000001300
#04512:0013
#0451b:0000000000130000
#04918:00130000
#0491b:0013
#04915:0013
#04912:00230000
#05112:13
#0511b:0013000000000000
#05118:0013
#05115:00130000
#05318:00000013
#05312:13
#0541b:0013000000000000
#05418:0013
#05412:00130000
#05415:13
#05212:00130000
#05218:0013
#05215:0000000000130000
#0521b:00000013
#05210:00410000
#05512:00130000
#0551b:0013
#05518:00000013
#05515:0000000000130000
#05612:13
#05615:00000023
#05015:1313
#05012:00130000
#05018:00130023
#0501b:1313
#0571b:13
#05712:0013000000000000
#05715:0013
#05718:00130000
#05915:00000013
#0591b:13
#06012:0013000000000000
#06015:0013
#0601b:00130000
#06018:13
#0581b:00130000
#05815:0013
#05818:0000000000130000
#05812:00000013
#0611b:00130000
#06112:0013
#06115:00000013
#06118:0000000000130000
#06110:00410000
#0621b:13000013
#06216:00000013
#06317:0000001333000000
#06312:0000001333000000
#06412:00130000
#0641b:00130000
#06515:13
#06518:13
#06512:00000013
#06517:00000013
#06616:0000001333000000
#0661b:0000001333000000
#06715:00130000
#06718:00130000
#06812:13000024
#0681b:13
#0681a:00000024
#0691a:14
#06916:0034000000001400
#06912:0014
#0701a:14
#07012:0014
#07016:0000140000340000
#0711a:14
#07116:00140014
#07112:0014
#0741a:14
#07416:00140000
#07412:0014
#0741b:00000013
#07518:3313
#0751b:00000033
#07712:13
#07718:00000013
#07715:00330000
#07615:00130000
#07612:0033
#0831b:00330013
#08418:1313
#08415:00130013
#08512:13
#0851b:00130000
#08518:0013
#08515:00000013
#08612:13
#0781b:3313
#07818:00000033
#08015:13
#08012:00330000
#07912:00130000
#07915:0033
#00918:13130013
#00912:0013000000001300
#00915:0013
#01018:1300000000130000
#01012:13
#0101b:00130000
#01015:00001313
#01115:00000013
#0111b:13
#01118:00131300
#01112:00131300
#01215:0013000013001300
#0121b:13130013
#01318:1300000000130000
#01312:13
#0131b:00130000
#01315:00001313
#02113:13
#02119:0013000000000000
#0211a:0000001300000000
#02114:00130000
#02112:00000013
#02115:0013
#0331a:13
#03314:0013000000000000
#03313:0000001300000000
#03319:00130000
#0331b:00000013
#03318:0013
#0461b:0013
#04718:13
#0471b:00130000
#04715:00130000
#04712:13000023
#0481b:13
#04815:0013000000000000
#0721a:14
#07216:0034000000001400
#07212:0014
#0731a:14
#07312:0014
#07316:0000140000340000
#00218:00000023
#00212:24
#02615:00000023
#02610:00000041
#03812:00000023
#0381b:00000023
#0381f:00000021
#0011a:00240000
#08112:00000033
#08118:33
#08215:0033
#01555:53
#01752:53
#0185b:00000063
#01858:0063
#01955:00530000
#0205b:53
#0225b:00530000
#02358:63
#0235b:00230000
#02452:00000053
#02455:0053
#02558:00630000
#02552:00630000
#02758:63
#0295b:63
#03052:00000053
#03055:0053
#03158:00630000
#03252:63
#03452:00630000
#03555:53
#03552:00230000
#0365b:00000063
#03658:0063
#03755:00530000
#0375b:00530000
#03958:00000053
#04052:0063
#04152:00130000
#04158:00130000
#04452:53000013
#04456:00230000
#0445b:00000013
#04958:00530000
#0495b:0023
#04955:0023
#04952:00530000
#06357:0000002300000000
#06352:0000002300000000
#0625b:00000053
#06256:00000053
#06452:00530000
#0645b:00630000
#06555:53
#06558:63
#06552:00000063
#06557:00000063
#06656:0000002300000000
#0665b:0000002300000000
#06755:00630000
#06758:00530000
#06852:63
#0685b:53
#0695a:54
#06956:00140000
#0705a:14
#07052:0064
#07056:00000014
#07152:0014
#07452:0014
#0745b:00000053
#07558:0063
#07752:63
#07758:00000063
#07655:00530000
#0785b:0053
#08055:53
#07952:00630000
#03852:00000013
#0385b:00000013
#02152:00000053
#02155:0053
#0335b:00000063
#03358:0063
#04555:00000063
#0465b:0053
#0475b:00130000
#04755:00130000
#0725a:54
#07256:00140000
#0735a:14
#07352:0064
#07356:00000014
#02655:00000013
#015350:13
#015320:0033230000000000
#016320:0000000013330033
#016350:00000033
#017320:33
#017350:0023
#018380:0013
#0183b0:00000033
#019380:23
#019350:00130000
#019320:0000000000230000
#0203b0:13
#020380:0023
#021350:0013
#021320:00000033
#022350:23
#0223b0:00130000
#022380:0023
#023380:1323
#0233b0:00530000
#024350:0013
#024320:00000033
#025350:23
#025380:00130000
#0253b0:0000000033003323
#025321:00130000
#025351:0000000033003323
#026351:1323
#026321:00330000
#0263b0:1323
#026380:00330000
#027380:13
#0273b0:0033230000000000
#0283b0:0000000013330033
#028380:00000033
#0293b0:33
#029380:0023
#030350:0013
#030320:00000033
#031350:23
#031380:00130000
#0313b0:0000000000230000
#032320:13
#032350:0023
#033380:0013
#0333b0:00000033
#034380:23
#034320:00130000
#034350:0023
#035350:1323
#035320:00530000
#036380:0013
#0363b0:00000033
#037380:23
#037350:00130000
#037320:0000000033003323
#0373b1:00130000
#037381:0000000033003323
#038381:1323
#0383b1:00330000
#038320:1323
#038350:00330000
#039380:00000013
#0403b0:23
#040320:00133300
#040350:00000023
#0423b0:0013
#042390:0000000000330033
#042370:00000033
#0433b0:23
#044320:1323
#044360:00530000
#045350:00000013
#046320:23
#0463b0:00133300
#046380:00000023
#0483b0:00130000
#048370:00003333
#0493b0:23
#049380:00130023
#0493b0:0053
#049321:00130023
#049351:0053
#051351:00000013
#052321:23
#0513b0:00000013
#052380:23
#053350:00130000
#053320:0023
#0533b1:00130000
#053381:0023
#054321:00000013
#055351:23
#0543b0:00000013
#0553b0:23
#056350:00130000
#056320:0023
#0563b1:00132300
#057381:00000013
#0583b1:23
#057320:00000013
#058350:23
#059380:00130000
#0593b0:0023
#059321:00130000
#059351:0023
#0603b1:00000013
#061381:23
#060320:00000013
#061320:23
#062380:00130000
#0623b0:0023
#062321:00132300
#0623b1:00000013
#063371:0000005333000000
#0643b1:23
#062360:00000013
#063320:0000005333000000
#064360:23
#064320:00130000
#065350:33
#065320:0023
#0643b1:00130000
#065381:33
#0653b1:0023
#065321:00000013
#066361:0000005333000000
#067321:23
#065370:00000013
#0663b0:0000005333000000
#067370:23
#067350:00130000
#068320:33
#068350:0023
#067381:00130000
#0683b1:33
#068381:0023
#0693a1:14
#069361:0034240000000000
#070321:0014
#070361:0000000000342400
#0723a1:14
#072361:0034240000000000
#073321:0014
#073361:0000000000342400
#0743b1:00000013
#075381:33333300
#0753b1:00000033
#0763b1:23
#076351:00130000
#076321:00003333
#077321:33
#077351:00332300
#077381:00000013
#0783b1:33333300
#078381:00000033
#079381:23
#079321:00130000
#079351:00003333
#080351:33
#080321:00332300
#0803b1:00000013
#081381:33230000
#081351:0013
#081321:00000033
#082321:23
#082321:00130000
#082351:00003323
#083381:13
#0833b1:00332300
