This file was generated by Ched 2.7.0.0.
#TITLE ""
#ARTIST ""
#DESIGNER ""
#DIFFICULTY 0
#PLAYLEVEL
#SONGID ""
#WAVE ""
#WAVEOFFSET 0
#JACKET ""
#REQUEST "ticks_per_beat 480"
#00002: 4
#BPM01: 180
#00008: 01
#TIL00: ""
#VOLUME: ""
#HISPEED 00
#MEASUREHS 00
#00312:00130013
#00315:0013000000000000
#0031b:1313
#00316:0000000013131300
#00318:00000013000000000000000000000000
#00416:13
#0041b:00131300
#00418:00000000000013000000001300000000
#00415:0000000000130000
#00412:00000013
#00219:0000000000000013
#00218:12
#00217:00000023
#00212:22
#00516:1313130000140000
#0051b:1300001300001300
#00512:00131300
#00519:0000000000000013
#00617:13
#00612:00131313
#0061b:00000013000000001300000000000000
#00615:0013000000000000
#00616:0000000000131300
#0071b:00000000130000001300001300000000
#00718:0000001300000000
#00712:00000013
#00715:0000000000130000
#00716:13
#00812:13131300
#0081b:1300001300000000
#00816:0013130000002300
#00815:0000000000130000
#00818:00000000000000000000001300000000
#00814:0000000000000013
#00810:00000041
#01012:00131300
#01015:00000000000013000000001300000000
#01018:0000000000130000
#0101b:00000013
#01017:13
#01117:1313130000000000
#01112:1300001300001300
#0111b:00131300
#01116:0000000000140000
#01114:0000000000000013
#0141b:13131323
#01412:1300001300000000
#01417:0013130000000000
#01415:0000000000130000
#01418:00000000000000000000001300000000
#01516:0013130000130000
#01512:0013000013000000
#0151b:1300000000000013
#01517:00000013
#01612:1300000000000013
#0161b:00130013
#01617:0000000013131300
#01717:1300000000000013
#01712:13000013
#0171b:00130013
#01716:00130000
#01710:00000041
#01812:13001313
#01817:1313
#0181b:0013130000130000
#01816:0000130000000013
#01814:0000001300000000
#0191b:13130013
#01916:00130000
#01912:0000000013000013
#01917:0000000000131300
#02016:13000013
#0201b:13000013
#02017:00130000
#02012:0000130000000013
#03112:13130013
#0311b:0000000013000013
#03116:0000000000131300
#03117:00230000
#03012:0013130000130000
#03016:1313
#03017:0000130000000013
#0301b:13002313
#03019:0000001300000000
#02912:00130013
#02916:2300000000000013
#02917:00130000
#0291b:13000023
#0291f:00000011
#0281b:1300000000000013
#02812:00230013
#02816:0000000013131300
#02712:1300131300000013
#02716:00002313
#02717:0013130000130000
#0271b:0013000013000000
#02112:13001313
#02116:1313130000000013
#0211b:0000130000130013
#02119:0000001300000000
#02117:00001313
#0221b:0000130000131300
#02217:0000000013001313
#02216:00130000
#02317:13130000
#02312:13130000
#02316:0013001300001300
#0231b:0000001300001300
#02516:0013001400140014
#0251a:00140014
#02512:00141400
#0251b:13
#02616:0014001400142300
#02618:1616
#02612:24162400
#0261a:00240000
#02610:00000041
#02412:1300000013000013
#0241b:00130000
#02416:0000001313001300
#03212:13000023
#03216:00130000
#0321b:0000130000000013
#03217:23000013
#0331b:13002313
#03317:1313130000000013
#03312:0000130000130013
#03314:0000001300000000
#03316:00001313
#03416:0000000013001313
#03412:0000230000131300
#03417:00130000
#0351b:13130000
#03517:0013001300002300
#03516:23130000
#03512:0000001300001300
#0361b:1300000023000013
#03612:00130000
#03617:0000001313001300
#03712:13000014
#03717:0013000000000000
#03716:0000000000000014
#0371a:00240000
#03816:0014181400140000
#03812:1823182c
#0381b:2323
#0381f:00000021
#03912:13
#03914:0013000000000000
#0391b:00130000
#03917:1300000000000013
#03919:0013000000000000
#03916:0000130000130000
#03910:00000041
#0401b:1313
#04014:0000000000130000
#04012:00000013
#04017:00000013
#04019:0000000000130000
#04112:0000000013000000000000132c000000
#0411b:1313
#04115:00000000000000000013000000000000
#04118:0000000000130000
#0451b:13
#04519:0013000000000000
#04512:00130000
#04516:13
#04514:0013000000000000
#04517:00130000
#04515:0000000000000013
#04518:0000000000130000
#04612:1313
#04619:0000000000132300
#04614:0000000000132300
#04618:0000000000000000000000000000000000000000000000000000001500000000
#04613:0000000000000000000000000000000000000000000000000000001500000000
#04312:1300001313000013
#04316:14141414
#0431b:0000000000131300
#04216:1414140014001413
#0421b:13130013
#04212:0013000000000000
#04217:0000000000130000
#04412:1300132c
#04416:14130000
#0441a:00140000
#04418:00000000000000000013000000000000
#0441b:00000000000000000000001300000000
#04415:0000000000130000
#05112:00130013
#05115:0013000000000000
#0511b:13131300
#05116:0000000013131300
#05118:00000013000000000000000000000000
#05216:13
#0521b:00131313
#05218:00000000000013000000001300000000
#05215:0000000000130000
#05212:00130013
#05210:00410000
#05019:0000000000000013
#05012:13131313
#0501b:13131300
#05016:0014001400140000
#05017:00000023
#05316:1313130000141300
#0531b:1300001300001300
#05312:00131300
#05319:0000000000000013
#05612:13131300
#0561b:1300001300001300
#05616:0013130000002300
#05615:0000000000130000
#05618:00000000000000000000001300000000
#05614:0000000000000013
#0571b:00130013
#05718:0013000000000000
#05712:13131300
#05717:0000000013131300
#05715:00000013000000000000000000000000
#05817:13
#05812:00131313
#05815:00000000000013000000001300000000
#05818:0000000000130000
#0581b:00130013
#05917:1313130000001300
#05912:1300001300001300
#0591b:00131300
#05916:0000000000140000
#05914:0000000000000013
#0621b:13131323
#06212:1300001300001300
#06217:0013130000000000
#06215:0000000000130000
#06218:00000000000000000000001300000000
#04712:0000132c
#0471b:00000000000000000000001300000000
#04718:00000000000000000013000000001300
#04715:0000000000130000
#04815:1600160000131600
#0481b:1313001300000000
#04812:000013002c001313
#04915:1613
#04912:001323000000001c
#0491b:13130000
#04918:0013
#00116:00120000
#0011c:00220000
#07416:00000012
#0741b:1313
#07417:0013131300000000
#07412:0013001300000000
#0751a:12120012
#07516:0012
#0761c:00001212
#07618:00120000
#07616:12
#07718:12001212
#0771c:00120000
#0801c:00000012
#08012:00120012
#08016:1212
#08119:12000012
#08116:00120000
#08115:00000012
#08118:0012
#0811c:0012
#08212:12120000
#08216:12
#0821c:00120000
#08215:0012
#08218:00000012
#0831c:0012
#08318:0012
#08319:00120000
#08315:00120000
#08316:12000012
#08312:12000012
#08417:12000012
#08418:00120000
#0841c:00120000
#08412:0012
#08416:0012
#08518:12
#0851c:1212
#08517:00120012
#08512:0012
#06916:13000013130000001300000000000000
#06912:0013130000130013
#06917:0000000000130000
#0691b:00000013
#06816:00002313
#06812:00230023
#07012:1300000013130000
#0701b:00000000130000000000001313000000
#07016:00000013
#07112:1313
#07116:0013131300000000
#0711b:0013001300001300
#07117:00000013
#07217:13000013130000001300000000000000
#0721b:0013130000130013
#07216:0000000000130000
#07212:00000013
#0731b:1300000013130000
#07312:00000000130000000000001313000000
#07317:00000013
#06316:13000023
#0631b:2313000000000000
#06317:00230000
#06417:2313
#0641b:00130000
#06412:1300000023130000
#06416:00000023
#06612:0013230000000000
#0661b:13000023
#06616:23
#06517:00230013
#06512:00000013
#0651b:0023
#06716:00130000
#06712:2313
#0671b:0000000000132300
#06717:1323
#07814:12120012
#07818:0012
#07912:00001212
#07916:00120000
#07918:12
#01216:13
#0121b:00131313
#01212:00000013000000001300000000000000
#01218:0013000000000000
#01217:0000000000131300
#01312:00000000130000001300001300000000
#01315:0000001300000000
#0131b:00000013
#01318:0000000000130000
#01317:13
#05417:13
#05412:00131313
#0541b:00000013000000001300000000000000
#05418:00130000
#05415:0013000000000000
#05416:0000000000131300
#0551b:00000000130000001300001300000000
#05518:0000001300001300
#05512:00000013
#05515:0000000000130000
#05516:13130000
#06016:13
#0601b:00131313
#06012:00000013000000001300000000000000
#06015:00130000
#06018:0013000000000000
#06017:0000000000131300
#06112:00000000130000001300001300000000
#06115:0000001300001300
#0611b:00000013
#06118:0000000000130000
#06117:13130000
#06110:00410000
#08612:12
#0861c:12
#0091b:00130013
#00918:0013000000000000
#00912:1313
#00917:0000000013131300
#00915:00000013000000000000000000000000
#00352:00330033
#00356:00000053
#00456:33
#00452:00000033
#00552:00333300
#00556:00530000
#0055b:0000002300000000
#00652:00330033
#00656:00000053
#00752:00000033
#00756:33
#00852:00333300
#00856:00530000
#0085b:0000002300000000
#0105b:00000043
#01057:43
#0115b:00434300
#01157:00630000
#01152:0000002300000000
#0145b:00434300
#01457:00630000
#01452:0000002300000000
#01552:0053
#01556:0000000000230000
#01557:00000053
#0155b:0000000000000023
#01752:53
#01756:00230000
#0175b:00230000
#01852:00000053
#01856:0000000000000023
#01857:0053
#0185b:0000000000230000
#0205b:63
#02052:00230000
#02057:00230000
#03052:0000000000230000
#03056:0063
#03057:0000000000000023
#0305b:00000063
#0295b:63
#02952:00230000
#02957:00230000
#02752:0000000000000023
#02756:00000063
#02757:0000000000230000
#0275b:0063
#02157:00005353
#0215b:0000000000230023
#02152:00000053
#02156:0000000000000023
#02352:53530000
#02356:0023002300000000
#02357:00530000
#0235b:0000002300002300
#02556:0000002400240000
#0255a:00540000
#02552:0064
#02658:1616
#02652:00160000
#02656:00000013
#0195b:00230000
#02256:00230000
#02452:2300000000000023
#02456:00005353
#03252:53
#03256:00230000
#0325b:00230000
#03356:00006363
#03352:0000000000230023
#0335b:00000063
#03357:0000000000000023
#0355b:63630000
#03557:0023002300000000
#03556:00630000
#03552:0000002300002300
#03152:00230000
#03457:00230000
#0365b:2300000000000023
#03657:00006363
#03852:1800181c
#03856:00180000
#03956:00530000
#0405b:53
#04052:00000053
#04057:00000053
#0415b:53
#04156:13
#04152:00130000
#04157:00130000
#04557:00630000
#04652:63
#04658:0000000000000000000000000000000000000000000000000000002500000000
#04653:0000000000000000000000000000000000000000000000000000002500000000
#04659:00000053
#04654:00000053
#04256:00640000
#04356:54
#04456:64
#0445a:00240000
#04452:0000001c
#05152:00330033
#05156:00000053
#05256:33
#05252:00230033
#05352:00333300
#05356:00530063
#0535b:0000002300000000
#05652:00333300
#05656:00530000
#0565b:0000002300002300
#0575b:00430043
#05757:00000063
#05857:43
#0585b:00230043
#0595b:00434300
#05957:00630053
#05952:0000002300000000
#0625b:00434300
#06257:00630000
#06252:0000002300006300
#05052:13001323
#0505b:00130000
#04855:36460046
#04955:3663
#04958:0053
#04952:00630000
#0495b:00530000
#06956:00636313
#06952:0000130000230000
#0695b:00000063
#06856:00001363
#06852:00130013
#07056:13000013
#0705b:00630063
#07052:63
#07152:53131300
#07156:0023530013000000
#0715b:0000002300000000
#07157:00000053
#07257:00535313
#0725b:0000130000230000
#07252:00000053
#07357:13000013
#07352:00530053
#0735b:53
#0745b:63131300
#07457:0023630013000000
#07452:0000002300000000
#06356:23000013
#06357:00130000
#06457:1323
#0645b:00530000
#06452:63
#06456:00000013
#0665b:23000013
#06652:00130000
#06557:00130063
#0655b:0013
#06756:00530000
#06752:1323
#06757:53
#0675b:00000013
#0125b:00430043
#01257:00000063
#0135b:00000043
#01357:43
#05452:00330033
#05456:00000053
#05552:00000033
#05556:33630000
#0605b:00430043
#06057:00000063
#0615b:00000043
#06157:43530000
#0095b:00430043
#00957:00000063
#002320:00000013
#003360:23
#003360:00000013
#0043b0:23
#004320:00130000
#004360:0023
#005360:00132300
#0053b0:0000005300000000
#005360:00000013
#006320:23
#006360:00000013
#0073b0:23
#007360:00130000
#007320:0023
#008360:00132300
#0083b0:0000005300000000
#0083b0:00000013
#009370:23
#009370:00000013
#010320:23
#0103b0:00130000
#010370:0023
#011370:00132300
#011320:0000005300000000
#011370:00000013
#0123b0:23
#012370:00000013
#013320:23
#013370:00130000
#0133b0:0023
#014370:00132300
#014320:0000005300000000
#014320:00000013
#015360:23
#0153b0:00130000
#015370:0023
#015321:00001323
#015361:0000000000530000
#015370:00000013
#0153b0:0000000000000053
#016370:23
#016360:00130000
#016320:0023
#017320:1323
#017360:00330000
#0173b1:00130000
#017371:0023
#018371:00001323
#0183b1:0000000000530000
#018320:00000013
#018360:0000000000000053
#019320:23
#0193b0:00130000
#019370:0023
#0203b0:1323
#020370:00330000
#020321:00130000
#020361:0023
#021371:00001333
#0213b1:0000000000530053
#022371:23
#021320:00000013
#021360:0000000000000053
#022320:23
#022360:00130000
#022320:0023
#023320:13332300
#023360:0053005300000000
#023371:00132300
#0233b1:0000005300000000
#0233b1:00000013
#024371:23
#024320:13
#024360:00230000
#024360:0013
#0243b0:00000023
#024361:00000013
#024321:0000000000000053
#025361:23
#0253a1:00142400
#025361:0000005400000000
#025320:00001424
#025360:0000000000540000
#0263b0:00000013
#027370:23
#0273b0:00001323
#027370:0000000000530000
#027361:00000013
#027321:0000000000000053
#028361:23
#028371:00130000
#0283b1:0023
#0293b1:1323
#029371:00330000
#029320:00130000
#029360:0023
#030360:00001323
#030320:0000000000530000
#0303b1:00000013
#030371:0000000000000053
#0313b1:23
#031321:00130000
#031361:0023
#032321:1323
#032361:00330000
#0323b0:00130000
#032370:0023
#033360:00001333
#033320:0000000000530053
#034360:23
#0333b1:00000013
#033371:0000000000000053
#0343b1:23
#034371:00130000
#0343b1:0023
#0353b1:13332300
#035371:0053005300000000
#035360:00132300
#035320:0000005300000000
#035320:00000013
#036360:23
#0363b1:13
#036371:00230000
#036371:0013
#036321:00000023
#036370:00000013
#0363b0:0000000000000053
#037370:23
#037320:00140000
#037360:000054240000
#0373a1:0014
#037361:000000000000005400240000
#039361:00130000
#039321:0023
#0393b0:00001323
#039321:00000013
#040321:23
#0403b0:13
#040370:00230000
#040321:00130000
#040361:000053230000
#040321:00000013
#041361:23
#040370:00000013
#0413b0:33
#041370:00230000
#042360:00140000
#042320:0024
#043360:14
#0433a0:00240000
#044360:1424
#0443a0:00540000
#045370:00130000
#0453b0:0023
#045321:00001323
#045351:0000000000330000
#0453b0:00000013
#045380:0000000000000033
#0463b0:23
#046321:13
#046361:00230000
#0463b0:00130000
#046370:000053230000
#046390:00000013
#046380:0000000000000000000000000000000000000000000000000000005500005300
#047350:53
#047360:00220000
#046341:00000013
#046331:0000000000000000000000000000000000000000000000000000005500000000
#046351:00000000000000000000000000000053
#047381:53220000
#049321:00130023
#049381:0033
#0493b0:00130023
#049350:0033
#050320:00000013
#051360:23
#051360:00000013
#0523b0:23
#052320:00130000
#052360:0023
#053360:00132300
#0533b0:0000005300000000
#053360:00000013
#054320:23
#054360:00000013
#0553b0:23
#055360:00130000
#055320:0023
#056360:00132300
#0563b0:0000005300000000
#0563b0:00000013
#057370:23
#057370:00000013
#058320:23
#0583b0:00130000
#058370:0023
#059370:00132300
#059320:0000005300000000
#059370:00000013
#0603b0:23
#060370:00000013
#061320:23
#061370:00130000
#0613b0:0023
#062370:00132300
#062320:0000005300000000
#062320:00000013
#063360:53
#063320:00332300
#063371:0013
#0633b1:00000023
#064321:13
#064361:00230000
#0643b0:00130033
#064370:0053
#0653b0:23
#065361:1323
#065321:00330000
#065371:00000013
#0663b1:53
#066371:00332300
#066320:0013
#066360:00000023
#067370:13
#0673b0:00230000
#067361:00130033
#067321:0053
#068361:23
#0683b0:1323
#068370:00330000
#068360:00000013
#0693b0:23
#069360:00130000
#0693b0:0023
#069361:00001323
#069321:0000000000530000
#0693b0:00000013
#070360:23
#070321:13
#070361:00230000
#0703b0:00130000
#070360:0023
#0703b0:00000013
#071360:23
#071321:13230000
#071361:0053000000000000
#071360:00132300
#0713b0:0000005300000000
#071370:00000013
#072320:23
#072370:00130000
#072320:0023
#072371:00001323
#0723b1:0000000000530000
#072320:00000013
#073370:23
#0733b1:13
#073371:00230000
#073320:00130000
#073370:0023
#073320:00000013
#074370:23
#0743b1:13230000
#074371:0053000000000000
#074370:00132300
#074320:0000005300000000
#074320:00000012
#075360:52220000
#075320:0012
#075360:00000052
#076320:22
#076340:00120000
#076380:00005222
#077340:1222
#077380:00520000
#0773c0:00000012
#078380:52220000
#0783c0:0012
#078380:00000052
#0793c0:22
#0793a0:00120000
#079360:00005222
#0803a0:1222
#080360:00520000
