This file was generated by Ched 2.7.0.0.
#TITLE ""
#ARTIST ""
#DESIGNER ""
#DIFFICULTY 0
#PLAYLEVEL
#SONGID ""
#WAVE ""
#WAVEOFFSET 0
#JACKET ""
#REQUEST "ticks_per_beat 480"
#00002: 4
#BPM01: 180
#00008: 01
#TIL00: ""
#VOLUME: ""
#HISPEED 00
#MEASUREHS 00
#00314:14
#0031a:00140000
#00418:00140014
#00412:0014
#00918:14
#00912:00140000
#01014:00140014
#0101a:0014
#01514:14
#0151a:00140000
#01512:0014
#01518:00000014
#01612:14
#0161a:00140000
#01614:0014
#01618:00000014
#01712:14
#01718:00000014
#01714:00340000
#01710:00000041
#00612:0014
#00616:00000014
#0061a:00140000
#00614:14
#0071a:14
#00714:00140014
#00718:0014
#0051a:00000014
#0121a:0014
#01216:00000014
#01212:00140000
#01218:14
#01312:14
#01318:00140014
#01314:0014
#01112:00000014
#01812:14
#01818:00140000
#01814:0014
#0181a:00000014
#01914:14
#01918:00140000
#01912:0014
#0191a:00000014
#02014:14
#0201a:00000014
#02012:00340000
#02118:00140014
#02112:14
#02114:0014
#02212:14
#0221a:00140000
#02214:0014
#02218:00000014
#02312:14
#02318:00000014
#02314:00340000
#0241a:00140014
#02414:14
#02412:0014
#02514:14
#02518:00140000
#0251a:0034
#02718:14
#02712:00140000
#0271a:0014
#02714:00000014
#0281a:14
#02812:00140000
#02818:0014
#02814:00000014
#0291a:14
#02914:00000014
#0291f:00000011
#02918:00340000
#0301a:14
#03014:00140000
#03018:0014
#03012:00000014
#03118:14
#03114:00140000
#0311a:0014
#03112:00000014
#03218:14
#03212:00000014
#0321a:00340000
#03314:00140014
#0331a:14
#03318:0014
#0341a:14
#03412:00140000
#03418:0014
#03414:00000014
#0351a:14
#03514:00000014
#03518:00340000
#03612:00140014
#03618:14
#0361a:0014
#03718:14
#03714:00140000
#03712:0034
#03914:14140000
#03910:00000041
#04012:00140000
#04016:0014
#0401a:00000014
#04212:14140000
#04218:0014
#04214:00000014
#04318:14
#04312:00140000
#04316:0014
#0431a:00000014
#04412:14
#04414:00343424
#04518:14140000
#0461a:00140000
#04616:0014
#04612:00000014
#0481a:14140000
#04814:0014
#04818:00000014
#04914:14
#04918:00140000
#05012:1616
#05018:00160000
#0501a:00000024
#05114:14
#05118:00140000
#05218:00140000
#0521a:00000014
#05212:0014
#05210:00410000
#05718:14
#05714:00140000
#05814:00140000
#05812:00000014
#0581a:0014
#05412:0014
#05416:00000014
#05418:00140000
#05414:14
#0551a:1414
#05512:00140000
#05514:00000014
#0531a:00000014
#0601a:0014
#06016:00000014
#06014:00140000
#06018:14
#06112:14
#0611a:00140000
#06118:00000014
#06114:0014
#06110:00410000
#05912:00000014
#06219:00000015
#06316:0000001500000000
#06412:00150000
#06415:0000000000000015
#06519:00000015
#06616:0000001500000000
#06712:00150000
#06715:0000000000000015
#06914:14
#0691a:00140000
#06912:0014
#06916:00000014
#0701a:14
#07012:00140014
#07018:0014
#0711a:14
#07116:00140000
#07112:0014
#07118:00000014
#07214:14
#0721a:00140000
#07212:0014
#07216:00000014
#0731a:14
#07314:00140000
#07318:0014
#07312:00000014
#0741a:14
#07416:00140000
#07412:0014
#0801a:00000014
#08212:00140000
#08215:00003434
#0021a:00000024
#00812:00000024
#00810:00000041
#0141a:00000024
#02612:00000024
#02610:00000041
#03818:00000024
#0381f:00000021
#0411a:00000024
#04712:00000024
#05612:00000024
#0681a:00000024
#08117:34343434
#08315:34340000
#08517:0034
#01752:54
#02054:64
#02352:54
#0295a:64
#03258:54
#0355a:64
#02558:00540000
#03754:00640000
#04452:54
#04454:00000014
#04958:00640000
#06259:00000055
#06356:0000002500000000
#06452:00650000
#06455:0000000000000025
#06559:00000055
#06656:0000002500000000
#06752:00650000
#06755:0000000000000025
#0805a:00000054
#08252:00640000
#03858:00000014
#04154:00140000
#04758:00140000
#0145a:00000014
#02652:00000014
#003340:0014
#003330:00000034
#004320:24
#005320:14
#005330:00340000
#005340:0024
#008380:14342400
#009380:0014
#009390:00000034
#0103a0:24
#0113a0:14
#011390:00340000
#011380:0024
#014340:14342400
#017320:14
#017340:00342400
#020340:14
#020320:00342400
#023320:14
#023340:00342400
#025380:00140000
#0253a0:00003434
#026380:3424
#0263a0:00340000
#0293a0:14
#029380:00342400
#032380:14
#0323a0:00342400
#0353a0:14
#035380:00342400
#037340:00140000
#037320:00003434
#038340:3424
#038320:00340000
#0393a0:0014
#039380:00000034
#0403a0:24
#041340:14240000
#044320:14
#044340:00343424
#045320:0014
#045340:00000034
#046320:24
#047380:14240000
#049380:00140000
#0493a0:00000024
#051340:0014
#051330:00000034
#052320:24
#053320:14
#053330:00340000
#053340:0024
#056380:1424
#0563a0:00340000
#057380:0014
#057390:00000034
#0583a0:24
#0593a0:14
#059390:00340000
#059380:0024
#062340:1424
#062320:00340000
#062390:00000015
#063360:0000005500000000
#064390:25
#064320:00150000
#064350:0000000000000055
#065320:0025
#065390:00000015
#066360:0000005500000000
#067390:25
#067320:00150000
#067350:0000000000000055
#068320:0025
#0743a0:00000014
#075390:34
#075380:00340034
#075370:0034
#076390:3434
#0763a0:00340000
#076380:00000034
#077370:34342400
#077320:00000014
#078330:34
#078340:00340034
#078350:0034
#079330:3434
#079320:00340000
#079340:00000034
#080350:34342400
#0803a0:00000014
#081370:34343434
#082370:24
#082320:00140000
#082350:00003434
#083350:34342400
#0833a0:00000014
#084390:34
#084380:00240000
#084320:0014
#084330:00000034
#085340:24
#0853a0:00140000
#085370:00003434
#086370:24
