This file was generated by Ched 2.7.0.0.
#TITLE ""
#ARTIST ""
#DESIGNER ""
#DIFFICULTY 0
#PLAYLEVEL
#SONGID ""
#WAVE ""
#WAVEOFFSET 0
#JACKET ""
#REQUEST "ticks_per_beat 480"
#00002: 4
#BPM01: 140
#00008: 01
#TIL00: ""
#VOLUME: ""
#HISPEED 00
#MEASUREHS 00
#0091a:14
#00910:41
#0111a:14
#01212:14
#01318:14
#01614:14
#01012:14
#01414:14
#01518:14
#0171a:14
#01812:14
#0181a:0014
#02314:14
#02414:14
#02518:14
#02618:14
#01912:14
#01910:41
#02012:14
#0211a:14
#0221a:14
#03414:14
#0631a:14
#06414:14
#06518:14
#06612:14
#0671a:14
#06814:14
#06918:14
#03918:14
#04018:14
#04114:14
#04214:14
#0351a:14
#03510:41
#0361a:14
#03712:14
#03812:14
#03318:14
#05612:1616
#05610:41
#05718:16
#05712:0016
#05518:2616
#0551f:21
#06018:1616
#06112:16
#06118:0016
#05912:2616
#07012:14
#0711a:14
#0471f:11
#00019:24
#00119:24
#00219:24
#00319:24
#00413:24
#00513:24
#00613:24
#00713:24
#00813:24
#00819:24
#07212:24
#0721a:0024
#04918:34
#04818:34
#05214:34
#05314:34
#02710:41
#04310:41
#027320:14
#028320:24
#0293a0:14
#0303a0:24
#031340:1434
#032340:3424
#0433a0:14
#0443a0:24
#045320:14
#046320:24
#0473a0:14
#048380:34
#049380:34
#050380:24
#051320:14
#052340:34
#053340:34
#054340:24
#058380:1626
#062320:1626
