This file was generated by Ched 2.7.0.0.
#TITLE ""
#ARTIST ""
#DESIGNER ""
#DIFFICULTY 0
#PLAYLEVEL
#SONGID ""
#WAVE ""
#WAVEOFFSET 0
#JACKET ""
#REQUEST "ticks_per_beat 480"
#00002: 4
#BPM01: 140
#00008: 01
#TIL00: ""
#VOLUME: ""
#HISPEED 00
#MEASUREHS 00
#0551b:1313
#05512:23130013
#05517:00000013
#05519:0000001300000013
#05516:0013
#05514:0000000000130000
#0551f:21
#0571b:13000013
#05717:00131300
#05716:14
#05712:0000001414000013
#05812:1300001313000013
#05817:1313
#0581b:0013130000001300
#05816:00130000
#05818:00000000000000000000000000000013
#0621b:13
#06217:00130000
#06214:0000001300000000
#06216:1300000013140014
#0621a:0014
#06212:00000014
#0631b:13001313
#06312:2400130013000013
#06317:0000001300000000
#06318:0000000000130000
#06315:00000013
#06418:1313
#06415:00130000000013001300000000000000
#0641b:0013000000130000
#06412:00000013000000000000130000000000
#06516:0013001400000014
#0651b:00000013000000000000000000000000
#06512:14000000000000001400001300000000
#0651a:14
#06517:0000000000130000
#0091b:1300000013130000
#00912:2400131300001300
#00916:0013
#00918:00000013
#00915:0000000000000013
#00910:41
#0101b:1313
#01012:00130000000013001300000000000000
#01018:0013000000000000
#01015:00000013000000000000000000000000
#01112:1413000014000014
#01117:00000013000000000000000000000000
#0111a:1400001400000000
#0111b:0000000000130000
#01116:00000000000000000000001300000000
#01212:0013000000001300
#01217:00000013000000000000000000000000
#0121a:1400001400000000
#01216:0013
#01214:0000000000130000
#0121b:00000000000000000013000000000000
#01219:00000000000000000000001300000000
#01218:0000000000000013
#01215:00000000000000000000000000000013
#0611b:0000000000000013
#06112:13000013
#06116:14131300
#0611a:0000001414000000
#01818:0000000000000013
#01812:00000000000000001400000000000013
#0181a:14
#0191b:23000000130000000000000000000013
#01912:0000130000130000
#01915:0013001300000013
#01910:41
#02012:13000000130000000000000000000013
#02018:0013001300000013
#0201b:0000130000130000
#0211b:13
#02118:0013000000000000
#02115:00130000
#02117:0000001300000000
#02112:00000000000013000000000000130000
#02116:0000000000130000
#0221b:13000000000000001300000000000013
#02218:0013000000130000
#02215:00000000130000000000001300001300
#02212:0000001313000000
#02415:0013000013130013
#0241b:00000013000000000000000000000013
#02418:0000001300000000
#03512:00130000
#03518:00130000
#0351b:0013000000000013
#03515:23000000000013000000130000000013
#03510:41
#03618:13000000000013000000130000000013
#03612:0013000000000013
#0361b:00130000
#03615:00130000
#03715:13
#03718:0013001300000000
#0371b:0000130000130000
#03712:0000001300000000
#03717:00000000000000000000000000130000
#03818:00001300000000001300001300000000
#03815:00000000130000000000130000000013
#0381b:0000001300000013
#03812:1313
#03912:0013000013000013
#03918:00000000130000000000000000000013
#0391b:0000001300000000
#03915:0000000000130000
#02818:0000000000000013
#02812:00000000000000000000000000000013
#0281b:0000000000130000
#03015:0013130000000000
#03012:0000001300001300
#03018:00000013000000000000000000000000
#0301b:1300001323000013
#03016:00000000000000001300000000000013
#03014:0000000000130000
#03017:00000023
#03019:0000000000230000
#0311b:1300000023000023
#03112:00000000130000000000001300000000
#03116:0000000000000013
#03117:00000000000000000000002300000000
#03212:1626
#03218:2616
#0331b:0013000000000000
#03315:00000013000000000000000000000000
#03312:1400001400130000
#03318:00000000000000000000001300000000
#0331a:1400000014000014
#0341b:0013000000001300
#03415:00000013000000000000000000000000
#03412:14000000000014000013000000001300
#03417:0013
#03419:0000000000130000
#03414:00000000000000000000001300000000
#03418:00000000000000000000000000000013
#04617:1313
#04619:0013001300000000
#0461b:0000130000000013
#04616:0000230000000013
#04612:2323
#04614:0023002300000000
#04718:0000120000120000
#04716:0000001200001200
#0471a:0012
#04714:0000000000000012
#0471c:12
#0471f:11
#04912:12000012
#04916:00121200
#0491c:0000001200000000
#04918:0000000000000012
#05016:12000012
#0501a:0012000000000000
#05014:00000000120000000000000000000012
#05018:0000001200000012
#05012:0012
#0531c:12000012
#05318:00121200
#05312:0000001200000000
#05316:0000000000000012
#05418:12000012
#05414:0012000000000000
#0541a:00120000
#05416:0000001200000000
#0541b:0000000000000013
#0541c:0012
#05412:0000000000000013
#00816:00000014
#00815:0000000000000013
#00818:00000000000000000000000000000013
#00812:2c
#01312:1300000013130000
#0131b:0000131300001300
#01317:0013
#01315:00000013
#01318:0000000000000013
#0131a:24
#01412:1313
#0141b:00130000000013001300000000000000
#01415:0013000000000000
#01418:00000013000000000000000000000000
#02512:13
#02515:0013000000000000
#02518:00130000
#02516:0000001300000000
#0251b:00000000000013000000000000130000
#02517:0000000000130000
#02612:13000000000000001300000000000013
#02615:0013000000130000
#02618:00000000130000000000001300001300
#0261b:0000001313000000
#04812:00120000
#0481c:00000012
#04818:00323232000012000000000000000000
#02918:0013000000000000
#02915:00130000
#02917:0000001300000000
#02912:00000000000013000000000000130000
#02916:0000000000130000
#0291b:23
#0401b:0013000013000013
#04015:00000000130000000000000000000013
#04012:0000001300000000
#04018:0000000000130000
#04118:13
#04115:0013001300000000
#04112:0000130000130000
#0411b:0000001300000000
#04116:00000000000000000000000000130000
#0421b:13000013
#04215:0013000000000000
#04218:00130000
#04212:0000001323000000
#04219:0000000000130000
#04217:0013
#04216:00000023
#04214:0000000000230000
#04319:0013000000000000
#04317:00130000
#04312:00130000
#0431b:2300001300000000
#04316:13000000000000130000000000000000
#04310:41
#0441b:13
#04412:0013000000000000
#04417:00000013000000000000000013000000
#04416:0013
#04518:1626
#04512:2616
#05116:0000120000120000
#05118:0000001200001200
#05114:0012
#0511a:0000000000000012
#0521c:00120000
#05212:00000012
#05216:00323232000012000000000000000000
#0561b:1313000000000000
#05615:00130013000000000000000000000000
#05612:0000001313000000
#05617:0013
#05614:0000000000130000
#05616:00000013
#05610:41
#05912:1313
#05919:0000000000130000
#0591b:00130013
#05916:00000013
#05914:0000001300000013
#05917:0013
#06012:1313000000000000
#06018:00130013000000000000000000000000
#0601b:0000001313000000
#06016:0013
#06019:0000000000130000
#06017:00000013
#0661a:14
#06616:0013001400001300
#0661b:00000013000000000000000000000000
#06612:0013
#06614:0000000000130000
#06617:00000000000000000013000000000000
#06619:00000000000000000000001300000000
#06615:00000000000000000000000000000013
#06618:0000000000000013
#06712:13001313
#0671b:0000130013000013
#06716:0000001300000000
#06715:0000000000130000
#06718:00000013
#0671a:24
#06815:1313
#06818:00130000000013001300000000000000
#06812:0013000000130000
#0681b:00000013000000000000130000000000
#06915:00001300000000000000001300000000
#06918:26000013000016000000130000000000
#06912:1600000026000016
#07012:0016260000162600
#07018:2600001626000016
#07112:16
#07115:0036363616363636
#07118:26
#01618:0013000000002400
#0161a:0000001300000000
#01613:0000000000130000
#01615:0000000000000013
#01612:24
#01614:00240000
#01616:0024
#01518:00001300000000000000001300000000
#01515:00000013000000000000130000000000
#01512:2400001400000000
#0151a:1400000024000014
#01716:0034343414343434
#01712:14
#0171a:24
#00318:0000000000121200
#00316:24000000000000000000001200000000
#00417:00121212
#0041a:1414
#00412:24
#00512:1400000014000014
#00517:00121212
#0051a:24
#0061a:1414
#00617:00120012
#00612:24
#00712:1414
#0071a:2400000000000014
#00717:0012001200120000
#02315:0000001300000000
#0231b:00000000000000130000000000000000
#02318:0013000000130013
#02312:00000000130000000000000000000013
#02712:0000000000130000
#0271b:00000000000000000000000000000013
#02715:0000000000000013
#02710:41
#00016:24
#00116:24
#00216:24
#07218:26
#07212:0026
#0555b:53
#05552:13
#05756:64
#05752:0054
#05852:0053
#06256:5300000000240024
#0625a:0064
#06252:00000054
#0635b:53
#06352:34
#06455:00005313
#06452:0000000000230000
#06458:00006313
#0645b:0000000000230000
#06556:0000001400000014
#0675a:14
#06752:63
#0095b:53
#00952:14
#01052:0053
#01055:00000013
#0105b:0063
#01058:00000013
#01952:0000000000130000
#02157:0000006300000000
#02156:0000000000630000
#02152:00000000000000000000000000230000
#03555:0000000000130000
#0315b:53
#03152:00630000
#03252:36
#03258:0046
#04652:0053
#04657:0053
#06156:54
#0615a:0064
#01352:63
#0135a:14
#0145b:0063
#01452:0053
#01458:00000013
#01455:00000013
#0205b:0000000000130000
#02556:0000005300000000
#02557:0000000000530000
#0255b:00000000000000000000000000230000
#02957:0000006300000000
#02956:0000000000630000
#02952:00000000000000000000000000230000
#03658:0000000000130000
#03752:0000006300000000
#0375b:0000000000630000
#03757:00000000000000000000000000230000
#03958:0000000000130000
#04055:0000000000130000
#0415b:0000005300000000
#04152:0000000000530000
#04156:00000000000000000000000000230000
#04456:0063
#04558:46
#04552:0036
#05657:0053
#0565b:00000013
#05656:00000013
#05952:63
#06056:0063
#06057:00000013
#06052:00000013
#06656:0000001400000000
#06858:00006313
#0685b:0000000000230000
#06855:00005313
#06852:0000000000230000
#07152:56
#07155:0066
#07258:46
#07252:0036
#0185a:44
#01852:0034
#01756:0064
#01752:54
#0075a:14
#00652:14
#0055a:14
#00452:14
#00356:14
#00256:14
#00156:14
#00056:14
#00852:1c
#0245b:0000000000130000
#02352:0000000000130000
#02752:0000000000130000
#0285b:0000000000130000
#0093b0:13
#009370:00230000
#0103b0:0000132300000000
#010320:0013
#010350:0000000000532300
#0103b1:0013
#010381:0000000000532300
#011321:0000132300000000
#0113b1:0000000000001323
#012321:0000132300000000
#013321:13
#013361:00230000
#014321:0000132300000000
#0143b1:0013
#014381:0000000000532300
#014320:0013
#014350:0000000000532300
#015380:0000132300000000
#015350:0000000000001323
#017320:14
#017360:0034343434343434
#018320:24
#019380:0000000013230000
#020350:0000000013230000
#021370:0000001300000000
#0213b0:0000000000230000
#021361:0000000000130000
#021321:00000000000000000000000000530000
#022361:23
#022381:0000000000001323
#023321:1323000000000000
#0233b1:0000132300000000
#023321:0000000013230000
#0243b1:1323000000000000
#024321:0000132300000000
#0243b1:0000000013230000
#025361:0000001300000000
#025321:0000000000230000
#025370:0000000000130000
#0253b0:00000000000000000000000000530000
#026370:23
#026350:0000000000001323
#0273b0:13
#027380:0023000000000000
#027321:0013230000000000
#027380:00130000
#0273b0:0000002300000000
#027351:0000001323000000
#0273b0:0013
#027380:0000000000230000
#028320:13
#028350:0023000000000000
#0283b1:0013230000000000
#028350:00130000
#028320:0000002300000000
#028381:0000001323000000
#028320:0013
#028350:0000000000230000
#029370:0000001300000000
#0293b0:0000000000230000
#029361:0000000000130000
#029321:00000000000000000000000000530000
#030361:23
#0313b1:13
#031371:00230000
#031320:00130000
#031360:0023
#033380:0000132300000000
#033350:0000000000001323
#034380:0000132300000000
#0353b0:0000000013230000
#036320:0000000013230000
#037320:0000001300000000
#037360:0000000000230000
#0373b1:0000000000130000
#037371:00000000000000000000000000530000
#0383b1:23
#038321:0000000000001323
#039381:1323000000000000
#039351:0000132300000000
#039381:0000000013230000
#040351:1323000000000000
#040381:0000132300000000
#040351:0000000013230000
#0413b1:0000001300000000
#041371:0000000000230000
#041320:0000000000130000
#041360:00000000000000000000000000530000
#042320:23
#0433b0:0000000013230000
#043321:0000000000132300
#043380:0000000000001323
#043351:0000000000000013
#044351:23
#044321:0000132300000000
#0443b0:0000001323000000
#044361:0013
#044321:00000023
#046321:0013
#046361:00000023
#046370:0013
#0463b0:00000023
#047340:12220000
#0483c0:12
#048380:00323232220000000000000000000000
#048320:0012
#048360:00000022
#049380:12
#0493c0:00220000
#0493c0:0012
#049380:00000022
#050380:0012
#0503c0:00000022
#0513a0:12220000
#052320:12
#052360:00323232220000000000000000000000
#0523c0:0012
#052380:00000022
#053360:12
#053320:00220000
#053320:0012
#053360:00000022
#054360:0012
#054320:00000022
#0553b0:13
#055370:00230000
#0563b0:0000132300000000
#056370:0013
#0563b0:00000023
#057360:14
#057320:00240000
#057320:0014
#057360:00000024
#058320:0013
#058360:00000023
#059320:13
#059360:00230000
#060320:0000132300000000
#060360:0013
#060320:00000023
#061360:14
#0613a0:00240000
#0613a0:0014
#061360:00000024
#062360:13
#062320:00230000
#0623a0:00001424
#062360:0000000000540000
#062321:00000014
#062361:0000000000000054
#063321:24
#0633b0:13
#063370:00230000
#064380:0000132300000000
#064350:00001323
#064320:0000000000530000
#064381:00001323
#0643b1:0000000000530000
#065361:00130000
#065321:0000002300000000
#065371:00000013
#0653b1:0000000000000023
#066361:00130000
#066321:0000002300000000
#067321:13
#067361:00230000
#068351:0000132300000000
#068381:00001323
#0683b1:0000000000530000
#068350:00001323
#068320:0000000000530000
#069320:00130000
#069350:0000002300000000
#0693b0:00000013
#069380:0000000000000023
#071320:16
#071350:0036363636363636
#072320:26
