This file was generated by Ched 2.7.0.0.
#TITLE ""
#ARTIST ""
#DESIGNER ""
#DIFFICULTY 0
#PLAYLEVEL
#SONGID ""
#WAVE ""
#WAVEOFFSET 0
#JACKET ""
#REQUEST "ticks_per_beat 480"
#00002: 4
#BPM01: 140
#00008: 01
#TIL00: ""
#VOLUME: ""
#HISPEED 00
#MEASUREHS 00
#00918:23001313
#0091b:0000000000130000
#00915:0000001300000013
#00912:00130000
#00910:41
#0151b:0013000000000000
#01515:0000000000130000
#01518:00000033330000000000000000000000
#01512:00000000000000000000003333000000
#01818:0000000000000013
#01812:0014
#03012:0000000024000013
#03018:0013000000000000
#03015:00130000
#0301b:0000001300000000
#03016:0000000000240000
#0301a:00000024
#0311b:13
#03114:0000000024000024
#03118:00000000000000000000002400000000
#0321a:14
#03212:0014
#04315:0013000000001300
#04318:0000130000130000
#04312:2300000000000013
#0431b:0000001313000000
#04310:41
#05518:2300001300130000
#05515:00130013
#0551b:0013
#05512:0000000000000013
#0551f:21
#0561b:1313
#05612:0000001300000000
#05615:0013000000000000
#05618:00130000
#05619:0000000000330000
#05610:41
#05718:0000001313000000
#05712:1300000000000013
#05815:1313
#05818:0013001300000013
#0581b:00130000
#00412:1414
#0041a:24
#00512:1414
#0051a:24
#0061a:1414
#00612:24
#0071a:1414
#00712:24
#00818:0000000000000013
#00815:00000000000000000000000000000013
#00814:28
#01015:00331333000000000000000000000000
#01012:13
#0101b:0013
#01115:00001300000000000000001300000000
#01118:00000013000000000000130000000000
#01215:0013000000000013
#01218:00000013000000000000000000000013
#01219:00000000000000000033000000000000
#0121a:0000000000330000
#0121b:00000000000000000000003300000000
#01315:23001313
#01312:0000000000130000
#01318:0000001300000013
#0131b:00130000
#01418:00331333000000000000000000000000
#0141b:13
#01412:0013
#01912:23130000
#01918:0013000000000000
#0191b:0000001300130000
#01915:0000000013000013
#01910:41
#0201b:13130000
#02015:0013000000000000
#02012:0000001300130000
#02018:0000000013000013
#02112:13
#0211b:0013000000130000
#02115:00130000
#02118:0000001300000000
#02212:0013000000000013
#02218:00130000
#02215:0000001300000000
#02318:00130000
#02315:0013000000130000
#02312:0000001300000000
#0231b:2300000013000013
#02412:1313
#02415:0000130000000013
#02418:0013000000130000
#0241b:0000001300000000
#0251b:13
#02512:0013000000130000
#02518:00130000
#02515:0000001300000000
#0261b:0013000000000013
#02615:00130000
#02618:0000001300000000
#02712:0000000000000013
#02710:41
#0281b:0000000000000013
#02915:0000130000130000
#02918:0013000000000000
#0291b:0000001300000000
#02912:23
#03312:0013000000000000
#03318:00000013000000000000000000000000
#0331b:1300000000130000
#03315:00000000000000000000001300000000
#03412:0013000000000000
#03418:00000013000000000000000000000000
#03415:0000000000000013
#03419:00000000000000000033000000000000
#0341a:0000000000330000
#0341b:00000000000000000000003300000000
#03518:0000130000000013
#03512:0013000000130000
#03515:0000001300000000
#0351b:2313
#03510:41
#03615:00130000
#0361b:0013000000130000
#03618:0000001300000000
#03612:1300000013000013
#03718:13
#03715:0013000000130000
#0371b:00130000
#03712:0000001300000000
#03818:0013000000000000
#03815:00130000
#0381b:0000001300000013
#03914:00130000
#03917:0013000000000000
#03919:0000001300000000
#03916:0013
#0391b:0000000000130000
#03912:2300000000000013
#0401b:1300000000000013
#04019:00130000
#04016:0013000000000000
#04014:0000001300000000
#04017:0013
#04012:0000000000130000
#04115:13
#04118:0013000000130000
#04112:00130000
#0411b:0000001300000000
#04215:0013000000000000
#04218:00130000
#04212:0000001300002400
#0421a:0024
#04216:0000000000240000
#0441b:00130000
#04418:1313
#04415:0013000000000000
#04412:0000001300000000
#04512:14
#0451a:0014
#04714:0000001200000000
#04718:00001212
#04716:0000000000120012
#0471f:11
#04914:0000001200000000
#0491a:0000000000000012
#05016:12
#05018:0000120000000012
#0511a:0000001200000000
#05116:00001212
#05118:0000000000120012
#0531a:0000001200000000
#05314:0000000000000012
#05418:12
#05416:00120000
#05415:0000000000000013
#05918:0000001300001300
#05912:0013
#05915:1300000000130000
#0591b:0000000000000013
#0601b:0000001300000000
#06012:1313
#06018:0013000000000000
#06015:00130000
#06014:0000000000330000
#06115:0000001313000000
#06118:0000000000000013
#0611b:13
#06218:13
#06212:0000001313000000
#06518:0013000000000000
#06512:00000013000000000000000000000000
#06515:0000000000130000
#0651b:00000000000000000000001300000000
#06618:0013000000000013
#06612:00000013000000000000003300000000
#06615:00000000000000000000000000000013
#06614:00000000000000000033000000000000
#06613:0000000000330000
#0641b:00331333000000000000000000000000
#06418:13
#06415:0013
#06812:00331333000000000000000000000000
#06815:13
#06818:0013
#06318:2300130000130000
#06315:23000013
#06312:0000001300000013
#0631b:0013
#06715:0000130000130000
#06718:23000013
#0671b:0000001300000013
#06712:0013
#07115:0034343414000000
#07112:1400000000343434
#0711a:24
#06918:0000000000130000
#06912:0013000000000000
#0691b:00000000000000000000003333000000
#06915:00000033330000000000000000000000
#01717:0034343414000000
#0171a:1400000000343434
#01712:24
#04816:0000001200000000
#05218:0000001200000000
#07212:24
#0721a:0024
#00016:24
#00116:24
#00216:24
#00316:24
#0161a:24
#01618:00240000
#01616:0024
#01614:00000024
#04612:23
#04615:00232300
#04618:0000002300000000
#0461b:0023000000000000
#07012:24
#07014:00240000
#07016:0024
#07018:00000024
#0155b:0053000000000000
#01555:0000000000530000
#0315b:53
#03252:0014
#0325a:14
#0565b:0063
#05758:0053
#05752:53
#01055:0023000000000000
#01052:53
#0105b:0063
#01058:00000013
#01458:0023000000000000
#0145b:63
#01452:0053
#01455:00000013
#01852:0014
#0185a:14
#02158:0000006300000000
#0215b:0000000000630000
#02555:0000005300000000
#02552:0000000000530000
#02955:0000000000630000
#0295b:0000006300000000
#03752:0000006300000000
#03755:0000000000630000
#0415b:0000005300000000
#04158:0000000000530000
#04458:0063
#04552:14
#0455a:0014
#05558:13
#05855:0063
#05955:63
#06155:0063
#0615b:63
#06052:0053
#06258:53
#06252:0053
#06355:13
#06358:13
#0645b:0023000000000000
#06458:53
#06455:0063
#06452:00000013
#06852:0023000000000000
#06855:63
#06858:0053
#0685b:00000013
#07155:0064
#07152:54
#06958:0000000000630000
#06952:0063000000000000
#07252:14
#0725a:0014
#01757:0054
#0175a:64
#00854:18
#010320:1300332300000000
#010350:00333333000000000000000000000000
#0103b0:0013
#010380:00000023
#011350:0000132300000000
#011380:0000000000001323
#012350:0000132300000000
#012380:0013
#012390:00000000000000000033000000000000
#0123a0:0000000000330000
#0123b0:00000000000000000000003323000000
#0143b0:1300332300000000
#014380:00333333000000000000000000000000
#014320:0013
#014350:00000023
#0153b0:1333000000000000
#015380:00000033330023000000000000000000
#015350:0000000013330000
#015320:00000000000000000000003333002300
#0173a0:1400000000343434
#017370:0034343434000000
#0183a0:24
#021380:0000001300000000
#0213b0:0000000000330000
#022380:23
#0223b0:0013
#022380:00000000000000000000333323000000
#025350:0000001300000000
#025320:0000000000330000
#026350:23
#026320:0013
#026350:00000000000000000000333323000000
#027350:1300003333000000
#027320:0033330000230000
#028380:1300003333000000
#0283b0:0033330000230000
#0293b0:0000001300000000
#029380:0000000000230000
#029351:0000000000130000
#030321:23
#0313b1:13
#031381:00230000
#033321:0000132300000000
#0333b1:0000000000001323
#034321:0000132300000000
#034381:0013
#034391:00000000000000000033000000000000
#0343a1:0000000000330000
#0343b1:00000000000000000000003323000000
#037321:0000001300000000
#037351:0000000000330000
#038321:23
#038351:0013
#038321:00000000000000000000333323000000
#0413b1:0000001300000000
#041381:0000000000330000
#0423b1:23
#044381:0013
#0443b1:00000023
#046351:00001323
#0473a1:12220000
#048381:12323232220000000000000000000000
#048361:00001222
#0493a1:12220000
#049341:00001222
#050361:00001222
#051341:12220000
#052361:12323232220000000000000000000000
#052381:00001222
#053341:12220000
#0533a1:00001222
#054381:00001222
#0563b1:0013
#056391:0000000000330000
#056381:00000023
#057321:13
#057351:00230000
#057381:0013
#0573b1:00000023
#058351:0013
#058321:00000023
#059351:13
#059321:00230000
#060321:0013
#060341:0000000000330000
#060351:00000023
#0613b1:13
#061381:00230000
#061351:0013
#061321:00000023
#062381:13
#0623b1:00230000
#062321:0013
#062351:00000033
#063351:23
#062380:00000013
#063380:23
#064380:1300332300000000
#0643b0:00333333000000000000000000000000
#064350:0013
#064320:00000023
#065380:0000132300000000
#065350:0000000000001323
#066380:0000132300000000
#066350:0013
#066340:00000000000000000033000000000000
#066330:0000000000330000
#066320:00000000000000000000003323000000
#068350:1300332300000000
#068320:00333333000000000000000000000000
#068380:0013
#0683b0:00000023
#069320:1333000000000000
#069350:00000033330023000000000000000000
#069380:0000000013330000
#0693b0:00000000000000000000003333002300
#071320:1400000000343434
#071350:0034343434000000
#072320:24
